Robert Wells And His Orchestra – Sun Studio Sessions (It’s All About the Boogie) (2017) FLAC (image + .cue) music Lossless

Robert Wells And His Orchestra - Sun Studio Sessions (It's All About the Boogie) (2017) FLAC (image + .cue)
Artist: Robert Wells | Album: Sun Studio Sessions (It’s All About the Boogie) | Released: 2017 | Label: Arthur Music – X5 Music Group | Genre: Rock, Piano Rock | Country: Sweden | Duration: 00:49:58

Tracklisting:

01. Cadillac Girl (3:05)
02. It’s All About The Boogie (2:30)
03. Six Days On The Road (Feat. Billy Dean) (2:48)
04. Come On If You’re Comin’ (4:07)
05. Saint Louis Blues (Feat. Charlie McCoy) (4:31)
06. I Can’t Make You Love Me (Feat. Billy Dean & Maria Wells) (4:29)
07. Lil’ Darlin’ (Feat. Charlie McCoy) (3:03)
08. Memphis Rag (2:55)
09. Old School Boogie (3:19)
10. Jump Up Boogie (3:32)
11. Route 66 (Feat. Maria Wells) (3:36)
12. Little Joe From Chicago (3:53)
13. Love Me Tender (2:32)
14. C 11 Dance (Bonus Track) (3:07)
15. Long Tall Sally (Feat. Lars Risberg) (Bonus Track) (2:32)

 Log Exact Audio Copy

Exact Audio Copy V1.3 from 2. September 2016

EAC extraction logfile from 26. February 2018, 0:09

Robert Wells And His Orchestra / Sun Studio Sessions

Used drive  : TSSTcorpCD/DVDW SH-S182D   Adapter: 1  ID: 0

Read mode               : Secure
Utilize accurate stream : Yes
Defeat audio cache      : Yes
Make use of C2 pointers : No

Read offset correction                      : 6
Overread into Lead-In and Lead-Out          : No
Fill up missing offset samples with silence : Yes
Delete leading and trailing silent blocks   : No
Null samples used in CRC calculations       : Yes
Used interface                              : Native Win32 interface for Win NT & 2000

Used output format              : User Defined Encoder
Selected bitrate                : 896 kBit/s
Quality                         : High
Add ID3 tag                     : No
Command line compressor         : F:flac.exe
Additional command line options : -8 -V -T "ARTIST=%artist%" -T "TITLE=%title%" -T "ALBUM=%albumtitle%" -T "DATE=%year%" -T "TRACKNUMBER=%tracknr%" -T "GENRE=%genre%" -T "COMMENT=Ripped by waddaw" -T "BAND=%albuminterpret%" -T "ALBUMARTIST=%albuminterpret%" -T "COMPOSER=%composer%" %haslyrics%--tag-from-file=LYRICS="%lyricsfile%"%haslyrics% -T "DISCNUMBER=%cdnumber%" -T "TOTALDISCS=%totalcds%" -T "TOTALTRACKS=%numtracks%" %hascover%--picture="%coverfile%"%hascover% %source% -o %dest%


TOC of the extracted CD

     Track |   Start  |  Length  | Start sector | End sector 
    ---------------------------------------------------------
        1  |  0:00.00 |  3:04.43 |         0    |    13842   
        2  |  3:04.43 |  2:29.48 |     13843    |    25065   
        3  |  5:34.16 |  2:48.33 |     25066    |    37698   
        4  |  8:22.49 |  4:07.33 |     37699    |    56256   
        5  | 12:30.07 |  4:30.58 |     56257    |    76564   
        6  | 17:00.65 |  4:29.37 |     76565    |    96776   
        7  | 21:30.27 |  3:03.22 |     96777    |   110523   
        8  | 24:33.49 |  2:55.07 |    110524    |   123655   
        9  | 27:28.56 |  3:19.07 |    123656    |   138587   
       10  | 30:47.63 |  3:31.68 |    138588    |   154480   
       11  | 34:19.56 |  3:36.08 |    154481    |   170688   
       12  | 37:55.64 |  3:52.44 |    170689    |   188132   
       13  | 41:48.33 |  2:31.39 |    188133    |   199496   
       14  | 44:19.72 |  3:06.45 |    199497    |   213491   
       15  | 47:26.42 |  2:31.69 |    213492    |   224885   


Range status and errors

Selected range

     Filename K:Robert Wells And His OrchestraRobert Wells And His Orchestra - Sun Studio Sessions.wav

     Peak level 98.6 %
     Extraction speed 7.1 X
     Range quality 100.0 %
     Test CRC 2F2F4BCD
     Copy CRC 2F2F4BCD
     Copy OK

No errors occurred

End of status report

---- AcoustID Plugin V1.2.0

Total fingerprints: 15


---- CUETools DB Plugin V2.1.6

[CTDB TOCID: JS57mhl7_U4qV0lZIe49_z9Hp8s-] disk not present in database
Submit result: JS57mhl7_U4qV0lZIe49_z9Hp8s- has been uploaded


==== Log checksum 39F0AF5D2F11E8FCA10D1F7251FE4719AE6D382997F74E218C8935E308EA096F ====

Single download
Robert Wells – Cadillac Girl 3:05
Robert Wells – It’s All About The Boogie 2:30
Robert Wells – Six Days On The Road Feat. Billy Dean
Robert Wells – Come On If You’re Comin’ 4:07
Robert Wells – Saint Louis Blues Feat. Charlie McCoy
Robert Wells – I Can’t Make You Love Me Feat. Billy Dean & Maria Wells
Robert Wells – Lil’ Darlin’ Feat. Charlie McCoy
Robert Wells – Memphis Rag 2:55
Robert Wells – Old School Boogie 3:19
Robert Wells – Jump Up Boogie 3:32
Robert Wells – Route 66 Feat. Maria Wells
Robert Wells – Little Joe From Chicago 3:53
Robert Wells – Love Me Tender 2:32
Robert Wells – C 11 Dance Bonus Track
Robert Wells – Long Tall Sally Feat. Lars Risberg

Category:Rock
Main catalog

Recommended:

Santana – Abraxas (1970-2001) FLAC (image + .cue) Scorpions – Lovedrive (1979) (Vinyl) FLAC Dire Straits – Music collection (2001) FLAC (image + .cue)

About the Author:

music