After The Fire – Signs Of Change (1978, 2004) FLAC (tracks + .cue) music Lossless

After The Fire - Signs Of Change (1978, 2004) FLAC (tracks + .cue)
Artist: After The Fire | Album: Signs Of Change | Released: 1978, 2004 | Label: Roughmix | Catalog #: 985900-3 | Genre: Rock, Prog Rock | Country: UK | Duration: 01:14:50

Tracklisting:

01. Dance Of The Marionette (7:03)
02. Back To The Light (4:31)
03. Now That I’ve Found (8:13)
04. Signs Of Change (8:07)
05. Jigs (2:59)
06. Pilgrim (11:22)
07. Samaritan Woman (11:04)
08. Dreamaway (9:52)
09. Hallelujah (6:31)
10. Back To The Light (Demo) (5:09)

 Log Exact Audio Copy

Exact Audio Copy V1.0 beta 3 from 29. August 2011

EAC extraction logfile from 7. June 2012, 15:21

After The Fire / Signs Of Change

Used drive  : ATAPI   iHAS324   Y   Adapter: 4  ID: 0

Read mode               : Secure
Utilize accurate stream : Yes
Defeat audio cache      : Yes
Make use of C2 pointers : No

Read offset correction                      : 48
Overread into Lead-In and Lead-Out          : No
Fill up missing offset samples with silence : Yes
Delete leading and trailing silent blocks   : No
Null samples used in CRC calculations       : Yes
Used interface                              : Native Win32 interface for Win NT & 2000
Gap handling                                : Appended to previous track

Used output format              : User Defined Encoder
Selected bitrate                : 896 kBit/s
Quality                         : High
Add ID3 tag                     : No
Command line compressor         : C:Program FilesExact Audio Copyflac.exe
Additional command line options : -8 -V -T "ARTIST=%artist%" -T "TITLE=%title%" -T "ALBUM=%albumtitle%" -T "DATE=%year%" -T "TRACKNUMBER=%tracknr%" -T "GENRE=%genre%" -T "PERFORMER=%albuminterpret%" -T "COMPOSER=%composer%" %haslyrics%--tag-from-file=LYRICS="%lyricsfile%"%haslyrics% -T "ALBUMARTIST=%albumartist%" -T "DISCNUMBER=%cdnumber%" -T "TOTALDISCS=%totalcds%" -T "TOTALTRACKS=%numtracks%" -T "COMMENT=%comment%" %source% -o %dest%


TOC of the extracted CD

     Track |   Start  |  Length  | Start sector | End sector 
    ---------------------------------------------------------
        1  |  0:00.00 |  7:03.14 |         0    |    31738   
        2  |  7:03.14 |  4:31.28 |     31739    |    52091   
        3  | 11:34.42 |  8:13.02 |     52092    |    89068   
        4  | 19:47.44 |  8:06.41 |     89069    |   125559   
        5  | 27:54.10 |  2:58.40 |    125560    |   138949   
        6  | 30:52.50 | 11:21.42 |    138950    |   190066   
        7  | 42:14.17 | 11:03.66 |    190067    |   239857   
        8  | 53:18.08 |  9:51.38 |    239858    |   284220   
        9  | 63:09.46 |  6:31.06 |    284221    |   313551   
       10  | 69:40.52 |  5:09.08 |    313552    |   336734   


Track  1

     Filename C:EAC1 - Dance Of The Marionette.wav

     Pre-gap length  0:00:02.00

     Peak level 97.6 %
     Extraction speed 2.8 X
     Track quality 100.0 %
     Test CRC 542F3A04
     Copy CRC 542F3A04
     Accurately ripped (confidence 4)  [69B514E2]  (AR v1)
     Copy OK

Track  2

     Filename C:EAC2 - Back To The Light.wav

     Pre-gap length  0:00:01.60

     Peak level 97.6 %
     Extraction speed 3.1 X
     Track quality 100.0 %
     Test CRC 0DE7FFF9
     Copy CRC 0DE7FFF9
     Accurately ripped (confidence 4)  [975EFF88]  (AR v1)
     Copy OK

Track  3

     Filename C:EAC3 - Now That I've Found.wav

     Pre-gap length  0:00:02.06

     Peak level 97.6 %
     Extraction speed 3.3 X
     Track quality 99.9 %
     Test CRC 1BC7F1CE
     Copy CRC 1BC7F1CE
     Accurately ripped (confidence 4)  [85DFD642]  (AR v1)
     Copy OK

Track  4

     Filename C:EAC4 - Signs Of Change.wav

     Pre-gap length  0:00:01.59

     Peak level 97.6 %
     Extraction speed 4.0 X
     Track quality 100.0 %
     Test CRC E7145997
     Copy CRC E7145997
     Accurately ripped (confidence 4)  [8E8646D4]  (AR v1)
     Copy OK

Track  5

     Filename C:EAC5 - Jigs.wav

     Pre-gap length  0:00:01.27

     Peak level 82.2 %
     Extraction speed 3.7 X
     Track quality 100.0 %
     Test CRC 513B4673
     Copy CRC 513B4673
     Accurately ripped (confidence 4)  [92ACF13C]  (AR v1)
     Copy OK

Track  6

     Filename C:EAC6 - Pilgrim.wav

     Peak level 97.6 %
     Extraction speed 4.4 X
     Track quality 99.9 %
     Test CRC 314F9F8E
     Copy CRC 314F9F8E
     Accurately ripped (confidence 4)  [89BED9F0]  (AR v1)
     Copy OK

Track  7

     Filename C:EAC7 - Samaritan Woman.wav

     Pre-gap length  0:00:01.14

     Peak level 97.6 %
     Extraction speed 5.1 X
     Track quality 100.0 %
     Test CRC 24C7A23F
     Copy CRC 24C7A23F
     Accurately ripped (confidence 3)  [7FF3C36C]  (AR v1)
     Copy OK

Track  8

     Filename C:EAC8 - Dreamaway.wav

     Pre-gap length  0:00:01.64

     Peak level 97.6 %
     Extraction speed 5.4 X
     Track quality 100.0 %
     Test CRC 617882AF
     Copy CRC 617882AF
     Accurately ripped (confidence 4)  [FAFF08FB]  (AR v1)
     Copy OK

Track  9

     Filename C:EAC9 - Hallelujah.wav

     Pre-gap length  0:00:01.60

     Peak level 97.6 %
     Extraction speed 5.1 X
     Track quality 99.9 %
     Test CRC 309012E4
     Copy CRC 309012E4
     Accurately ripped (confidence 4)  [4FADB277]  (AR v1)
     Copy OK

Track 10

     Filename C:EAC10 - Back To The Light (Demo).wav

     Pre-gap length  0:00:01.13

     Peak level 97.6 %
     Extraction speed 5.1 X
     Track quality 99.9 %
     Test CRC 427625FD
     Copy CRC 427625FD
     Accurately ripped (confidence 3)  [F2150EFF]  (AR v1)
     Copy OK


All tracks accurately ripped

No errors occurred

End of status report

==== Log checksum 25975E79678E567EE9433529EFA6313EB89119C7857813972BED03E424DCB2DB ====

------------------------------------------------------------

Exact Audio Copy V1.0 beta 3 from 29. August 2011

EAC extraction logfile from 7. June 2012, 15:21

After The Fire / Signs Of Change

Used drive  : ATAPI   iHAS324   Y   Adapter: 4  ID: 0

Read mode               : Secure
Utilize accurate stream : Yes
Defeat audio cache      : Yes
Make use of C2 pointers : No

Read offset correction                      : 48
Overread into Lead-In and Lead-Out          : No
Fill up missing offset samples with silence : Yes
Delete leading and trailing silent blocks   : No
Null samples used in CRC calculations       : Yes
Used interface                              : Native Win32 interface for Win NT & 2000
Gap handling                                : Appended to previous track

Used output format              : User Defined Encoder
Selected bitrate                : 896 kBit/s
Quality                         : High
Add ID3 tag                     : No
Command line compressor         : C:Program FilesExact Audio Copyflac.exe
Additional command line options : -8 -V -T "ARTIST=%artist%" -T "TITLE=%title%" -T "ALBUM=%albumtitle%" -T "DATE=%year%" -T "TRACKNUMBER=%tracknr%" -T "GENRE=%genre%" -T "PERFORMER=%albuminterpret%" -T "COMPOSER=%composer%" %haslyrics%--tag-from-file=LYRICS="%lyricsfile%"%haslyrics% -T "ALBUMARTIST=%albumartist%" -T "DISCNUMBER=%cdnumber%" -T "TOTALDISCS=%totalcds%" -T "TOTALTRACKS=%numtracks%" -T "COMMENT=%comment%" %source% -o %dest%


TOC of the extracted CD

     Track |   Start  |  Length  | Start sector | End sector 
    ---------------------------------------------------------
        1  |  0:00.00 |  7:03.14 |         0    |    31738   
        2  |  7:03.14 |  4:31.28 |     31739    |    52091   
        3  | 11:34.42 |  8:13.02 |     52092    |    89068   
        4  | 19:47.44 |  8:06.41 |     89069    |   125559   
        5  | 27:54.10 |  2:58.40 |    125560    |   138949   
        6  | 30:52.50 | 11:21.42 |    138950    |   190066   
        7  | 42:14.17 | 11:03.66 |    190067    |   239857   
        8  | 53:18.08 |  9:51.38 |    239858    |   284220   
        9  | 63:09.46 |  6:31.06 |    284221    |   313551   
       10  | 69:40.52 |  5:09.08 |    313552    |   336734   


Track  1

     Filename C:EAC1 - Dance Of The Marionette.wav

     Pre-gap length  0:00:02.00

     Peak level 97.6 %
     Extraction speed 2.8 X
     Track quality 100.0 %
     Test CRC 542F3A04
     Copy CRC 542F3A04
     Accurately ripped (confidence 4)  [69B514E2]  (AR v1)
     Copy OK

Track  2

     Filename C:EAC2 - Back To The Light.wav

     Pre-gap length  0:00:01.60

     Peak level 97.6 %
     Extraction speed 3.1 X
     Track quality 100.0 %
     Test CRC 0DE7FFF9
     Copy CRC 0DE7FFF9
     Accurately ripped (confidence 4)  [975EFF88]  (AR v1)
     Copy OK

Track  3

     Filename C:EAC3 - Now That I've Found.wav

     Pre-gap length  0:00:02.06

     Peak level 97.6 %
     Extraction speed 3.3 X
     Track quality 99.9 %
     Test CRC 1BC7F1CE
     Copy CRC 1BC7F1CE
     Accurately ripped (confidence 4)  [85DFD642]  (AR v1)
     Copy OK

Track  4

     Filename C:EAC4 - Signs Of Change.wav

     Pre-gap length  0:00:01.59

     Peak level 97.6 %
     Extraction speed 4.0 X
     Track quality 100.0 %
     Test CRC E7145997
     Copy CRC E7145997
     Accurately ripped (confidence 4)  [8E8646D4]  (AR v1)
     Copy OK

Track  5

     Filename C:EAC5 - Jigs.wav

     Pre-gap length  0:00:01.27

     Peak level 82.2 %
     Extraction speed 3.7 X
     Track quality 100.0 %
     Test CRC 513B4673
     Copy CRC 513B4673
     Accurately ripped (confidence 4)  [92ACF13C]  (AR v1)
     Copy OK

Track  6

     Filename C:EAC6 - Pilgrim.wav

     Peak level 97.6 %
     Extraction speed 4.4 X
     Track quality 99.9 %
     Test CRC 314F9F8E
     Copy CRC 314F9F8E
     Accurately ripped (confidence 4)  [89BED9F0]  (AR v1)
     Copy OK

Track  7

     Filename C:EAC7 - Samaritan Woman.wav

     Pre-gap length  0:00:01.14

     Peak level 97.6 %
     Extraction speed 5.1 X
     Track quality 100.0 %
     Test CRC 24C7A23F
     Copy CRC 24C7A23F
     Accurately ripped (confidence 3)  [7FF3C36C]  (AR v1)
     Copy OK

Track  8

     Filename C:EAC8 - Dreamaway.wav

     Pre-gap length  0:00:01.64

     Peak level 97.6 %
     Extraction speed 5.4 X
     Track quality 100.0 %
     Test CRC 617882AF
     Copy CRC 617882AF
     Accurately ripped (confidence 4)  [FAFF08FB]  (AR v1)
     Copy OK

Track  9

     Filename C:EAC9 - Hallelujah.wav

     Pre-gap length  0:00:01.60

     Peak level 97.6 %
     Extraction speed 5.1 X
     Track quality 99.9 %
     Test CRC 309012E4
     Copy CRC 309012E4
     Accurately ripped (confidence 4)  [4FADB277]  (AR v1)
     Copy OK

Track 10

     Filename C:EAC10 - Back To The Light (Demo).wav

     Pre-gap length  0:00:01.13

     Peak level 97.6 %
     Extraction speed 5.1 X
     Track quality 99.9 %
     Test CRC 427625FD
     Copy CRC 427625FD
     Accurately ripped (confidence 3)  [F2150EFF]  (AR v1)
     Copy OK


All tracks accurately ripped

No errors occurred

End of status report

==== Log checksum 25975E79678E567EE9433529EFA6313EB89119C7857813972BED03E424DCB2DB ====

Single download
After The Fire – Dance Of The Marionette 7:03
After The Fire – Back To The Light 4:31
After The Fire – Now That I’ve Found 8:13
After The Fire – Signs Of Change 8:07
After The Fire – Jigs 2:59
After The Fire – Pilgrim 11:22
After The Fire – Samaritan Woman 11:04
After The Fire – Dreamaway 9:52
After The Fire – Hallelujah 6:31
After The Fire – Back To The Light Demo

Category:Rock
Main catalog

Recommended:

Океан Ельзи – Суперсиметрія (2003) FLAC (image + .cue) Deftones – Back To School (Mini Maggit) (2001) FLAC (tracks + .cue) America – Hearts (1975, 2016) WV (tracks)

About the Author:

music