Alan Price – Shouts Across The Street (1976, 2001) FLAC (tracks + .cue) music Lossless

Alan Price - Shouts Across The Street (1976, 2001) FLAC (tracks + .cue)
Artist: Alan Price | Album: Shouts Across The Street | Released: Edsel Records | Label: Edsel Records, UK | Catalog #: EDCD 674 | Genre: Rock, Classic Rock | Country: UK | Duration: 00:38:23

Tracklisting:

01. Glass Mountain (3:49)
02. The Waste Land (2:54)
03. Leave it All to Me (2:20)
04. Hungry for Love (2:52)
05. I Know When I’ve Had Enough (3:04)
06. Shouts Across the Street (2:30)
07. I Just Got Love (2:47)
08. Don’t Stop (4:25)
09. The World’s Going Down on Me (3:54)
10. Cherie (3:17)
11. Don’t Try (4:10)
12. Farewell Goodbye (2:22)

 Log Exact Audio Copy

EAC extraction logfile from 22. January 2008, 16:05 for CD
Alan Price / Shouts Across the Street

Used drive  : TSSTcorpCD/DVDW SH-S182M   Adapter: 0  ID: 0
Read mode   : Secure with NO C2, accurate stream, disable cache
Read offset correction : 6
Overread into Lead-In and Lead-Out : No

Used output format : C:Program FilesFLACflac.exe   (User Defined Encoder)
                     128 kBit/s
                     Additional command line options : -V -8 -T "artist=%a" -T "title=%t" -T "album=%g" -T "date=%y" -T "tracknumber=%n" -T "genre=%m" %s

Other options      : 
    Fill up missing offset samples with silence : Yes
    Delete leading and trailing silent blocks : No
    Installed external ASPI interface


Track  1
     Filename C:Program FilesExact Audio Copy1 - Glass Mountain.wav

     Pre-gap length  0:00:02.00

     Peak level 98.7 %
     Track quality 100.0 %
     Test CRC 7726CBED
     Copy CRC 7726CBED
     Copy OK

Track  2
     Filename C:Program FilesExact Audio Copy2 - The Waste Land.wav

     Pre-gap length  0:00:02.53

     Peak level 98.7 %
     Track quality 100.0 %
     Test CRC 88A34AD8
     Copy CRC 88A34AD8
     Copy OK

Track  3
     Filename C:Program FilesExact Audio Copy3 - Leave it All to Me.wav

     Pre-gap length  0:00:02.53

     Peak level 56.4 %
     Track quality 100.0 %
     Test CRC C9AE3444
     Copy CRC C9AE3444
     Copy OK

Track  4
     Filename C:Program FilesExact Audio Copy4 - Hungry for Love.wav

     Pre-gap length  0:00:02.53

     Peak level 98.7 %
     Track quality 100.0 %
     Test CRC 16B5F340
     Copy CRC 16B5F340
     Copy OK

Track  5
     Filename C:Program FilesExact Audio Copy5 - I Know When I've Had Enough.wav

     Pre-gap length  0:00:02.53

     Peak level 98.7 %
     Track quality 100.0 %
     Test CRC FB744AC7
     Copy CRC FB744AC7
     Copy OK

Track  6
     Filename C:Program FilesExact Audio Copy6 - Shouts Across the Street.wav

     Pre-gap length  0:00:02.53

     Peak level 66.7 %
     Track quality 100.0 %
     Test CRC A3B80D58
     Copy CRC A3B80D58
     Copy OK

Track  7
     Filename C:Program FilesExact Audio Copy7 - I Just Got Love.wav

     Pre-gap length  0:00:02.53

     Peak level 98.7 %
     Track quality 100.0 %
     Test CRC BC69E3E5
     Copy CRC BC69E3E5
     Copy OK

Track  8
     Filename C:Program FilesExact Audio Copy8 - Don't Stop.wav

     Pre-gap length  0:00:02.53

     Peak level 98.7 %
     Track quality 100.0 %
     Test CRC 063C69DE
     Copy CRC 063C69DE
     Copy OK

Track  9
     Filename C:Program FilesExact Audio Copy9 - The World's Going Down on Me.wav

     Pre-gap length  0:00:02.53

     Peak level 98.7 %
     Track quality 100.0 %
     Test CRC BF2096C9
     Copy CRC BF2096C9
     Copy OK

Track 10
     Filename C:Program FilesExact Audio Copy10 - Cherie.wav

     Pre-gap length  0:00:02.53

     Peak level 98.7 %
     Track quality 100.0 %
     Test CRC A5FED259
     Copy CRC A5FED259
     Copy OK

Track 11
     Filename C:Program FilesExact Audio Copy11 - Don't Try.wav

     Pre-gap length  0:00:02.53

     Peak level 98.7 %
     Track quality 100.0 %
     Test CRC 04C250C8
     Copy CRC 04C250C8
     Copy OK

Track 12
     Filename C:Program FilesExact Audio Copy12 - Farewell Goodbye.wav

     Pre-gap length  0:00:02.53

     Peak level 98.7 %
     Track quality 100.0 %
     Test CRC E4431924
     Copy CRC E4431924
     Copy OK

No errors occured


End of status report

Single download
Alan Price – Glass Mountain 3:49
Alan Price – The Waste Land 2:54
Alan Price – Leave it All to Me 2:20
Alan Price – Hungry for Love 2:52
Alan Price – I Know When I’ve Had Enough 3:04
Alan Price – Shouts Across the Street 2:30
Alan Price – I Just Got Love 2:47
Alan Price – Don’t Stop 4:25
Alan Price – The World’s Going Down on Me 3:54
Alan Price – Cherie 3:17
Alan Price – Don’t Try 4:10
Alan Price – Farewell Goodbye 2:22

Category:Rock
Main catalog

Recommended:

REO Speedwagon – Hi Infidelity (1980, 2000) FLAC (tracks + .cue) Dance With The Dead – Loved to Death (2018) FLAC (tracks) The Doors – Hello, I Love You (Maxi Single) (2018) FLAC

About the Author:

music