Black Oak Arkansas – Early Times (1974, 1992) FLAC (tracks + .cue) music Lossless

Black Oak Arkansas - Early Times (1974, 1992) FLAC (tracks + .cue)
Artist: Black Oak Arkansas | Album: Early Times | Released: 1974, 1992 | Label: Stax, UK | Catalog #: CDSXE 067 | Genre: Rock, Southern Rock | Country: US | Duration: 00:31:56

Tracklisting:

01. Someone Something (3:19)
02. When I’m Gone (5:50)
03. Let Us Pray (2:58)
04. Sly Fox (3:45)
05. Mean Woman (If You Ever Blues) (2:53)
06. No One and the Sun (4:01)
07. Theatre (2:51)
08. Collective Thinking (3:18)
09. Older Than Grandpa (3:00)

 Log Exact Audio Copy

Exact Audio Copy V1.3 from 2. September 2016

EAC extraction logfile from 27. March 2018, 18:59

Black Oak Arkansas / Early Times

Used drive : TSSTcorpCD/DVDW SH-S182D Adapter: 1 ID: 0

Read mode : Secure
Utilize accurate stream : Yes
Defeat audio cache : Yes
Make use of C2 pointers : No

Read offset correction : 6
Overread into Lead-In and Lead-Out : No
Fill up missing offset samples with silence : Yes
Delete leading and trailing silent blocks : No
Null samples used in CRC calculations : Yes
Used interface : Native Win32 interface for Win NT & 2000
Gap handling : Appended to previous track

Used output format : User Defined Encoder
Selected bitrate : 896 kBit/s
Quality : High
Add ID3 tag : No
Command line compressor : F:flac.exe
Additional command line options : -8 -V -T "ARTIST=%artist%" -T "TITLE=%title%" -T "ALBUM=%albumtitle%" -T "DATE=%year%" -T "TRACKNUMBER=%tracknr%" -T "GENRE=%genre%" -T "COMMENT=Ripped by waddaw" -T "BAND=%albuminterpret%" -T "ALBUMARTIST=%albuminterpret%" -T "COMPOSER=%composer%" %haslyrics%--tag-from-file=LYRICS="%lyricsfile%"%haslyrics% -T "DISCNUMBER=%cdnumber%" -T "TOTALDISCS=%totalcds%" -T "TOTALTRACKS=%numtracks%" %hascover%--picture="%coverfile%"%hascover% %source% -o %dest%

TOC of the extracted CD

Track | Start | Length | Start sector | End sector
---------------------------------------------------------
1 | 0:00.00 | 3:19.25 | 0 | 14949
2 | 3:19.25 | 5:50.37 | 14950 | 41236
3 | 9:09.62 | 2:57.38 | 41237 | 54549
4 | 12:07.25 | 3:45.35 | 54550 | 71459
5 | 15:52.60 | 2:52.60 | 71460 | 84419
6 | 18:45.45 | 4:01.17 | 84420 | 102511
7 | 22:46.62 | 2:51.33 | 102512 | 115369
8 | 25:38.20 | 3:17.55 | 115370 | 130199
9 | 28:56.00 | 3:00.17 | 130200 | 143716

Track 1

Filename K:Black Oak Arkansas - 1974 - Early Times (Stax ‎

Single download
Black Oak Arkansas - Someone Something 3:19
Black Oak Arkansas - When I'm Gone 5:50
Black Oak Arkansas - Let Us Pray 2:58
Black Oak Arkansas - Sly Fox 3:45
Black Oak Arkansas - Mean Woman If You Ever Blues
Black Oak Arkansas - No One and the Sun 4:01
Black Oak Arkansas - Theatre 2:51
Black Oak Arkansas - Collective Thinking 3:18
Black Oak Arkansas - Older Than Grandpa 3:00

Category:Rock
Main catalog

Recommended:

Sum 41 - Chuck (2004) FLAC (image+.cue) Uriah Heep - It Was 40 Years Ago (2016) FLAC (tracks + .cue) Steve Vai - The Story of Light (2012) FLAC (tracks)

About the Author:

music