Docker’s Guild – The Heisenberg Diaries Book A: Sounds Of Future Past (2015) FLAC (image + .cue) music Lossless

Docker's Guild - The Heisenberg Diaries Book A: Sounds Of Future Past (2015) FLAC (image + .cue)
Artist: Dockers Guild | Album: The Heisenberg Diaries Book A: Sounds Of Future Past | Released: 2015 | Label: Black Swan Records | Catalog: vrccd132016 | Genre: Rock

Band:
- Douglas R. Docker / keyboards (all tracks), lead and backing vocals (tracks 3-6)
With:
- Elisa Montin / drums (tracks 1-7, 9-11, 13)
- Roxy Petrucci / drums (tracks 12, 14)
- Anna Portalupi / bass (tracks 1-7, 9-13)
- Nita Strauss / guitars (tracks 2-6, 8, 10)
- Mio Jäger / guitars (tracks 1, 9, 11, 14)
- Yasi Hofer / guitars (tracks 7, 12)
- Elize Ryd / lead vocals (tracks 4, 6)
- Amanda Somerville / lead and backing vocals (track 2)
- Valentina Procopio / lead vocals (track 7), backing vocals (tracks 3, 6)

Tracklisting:

01. Space 99 Year One Theme (1:08)
02. Flash Gordon Suite (15:21)
03. Barbarella (4:22)
04. Suspension (4:21)
05. When The Wind Blows (3:32)
06. The Neverending Story (3:05)
07. Red Dwarf Theme (4:47)
08. The White Light/Echoes From The Past/Dying Station/Delenn’s Sunrise (5:41)
09. Doctor Who Main Theme (2:53)
10. UFO Main theme (1:15)
11. The Black Hole End Title (2:35)
12. Space Patrol (2:04)
13. Dune Suite (11:08)
14. Space 99 Year Two Main Theme (1:25)

 Log Exact Audio Copy


Exact Audio Copy V1.0 beta 3 from 29. August 2011

EAC extraction logfile from 26. April 2016, 20:40

Docker's Guild / Book A - Sounds Of Future Past

Used drive  : SlimtypeDVD A  DS8A5SH   Adapter: 0  ID: 0

Read mode               : Secure
Utilize accurate stream : Yes
Defeat audio cache      : Yes
Make use of C2 pointers : No

Read offset correction                      : 6
Overread into Lead-In and Lead-Out          : No
Fill up missing offset samples with silence : Yes
Delete leading and trailing silent blocks   : No
Null samples used in CRC calculations       : Yes
Used interface                              : Installed external ASPI interface

Used output format              : User Defined Encoder
Selected bitrate                : 320 kBit/s
Quality                         : High
Add ID3 tag                     : No
Command line compressor         : C:Program Files (x86)Exact Audio CopyFlacflac.exe
Additional command line options : -V -8 -T "Date=%year%" -T "Genre=%genre%" %source%

TOC of the extracted CD

     Track |   Start  |  Length  | Start sector | End sector
    ---------------------------------------------------------
        1  |  0:00.00 |  1:07.48 |         0    |     5072
        2  |  1:07.48 | 15:20.49 |      5073    |    74121
        3  | 16:28.22 |  4:21.43 |     74122    |    93739
        4  | 20:49.65 |  4:20.63 |     93740    |   113302
        5  | 25:10.53 |  3:31.60 |    113303    |   129187
        6  | 28:42.38 |  3:05.03 |    129188    |   143065
        7  | 31:47.41 |  4:46.63 |    143066    |   164578
        8  | 36:34.29 |  5:41.06 |    164579    |   190159
        9  | 42:15.35 |  2:53.12 |    190160    |   203146
       10  | 45:08.47 |  1:15.06 |    203147    |   208777
       11  | 46:23.53 |  2:34.44 |    208778    |   220371
       12  | 48:58.22 |  2:04.09 |    220372    |   229680
       13  | 51:02.31 | 11:08.02 |    229681    |   279782
       14  | 62:10.33 |  1:25.36 |    279783    |   286193

Range status and errors

Selected range

     Filename D:My MusicDocker's Guild - 2015 Book A-Sounds Of Future PastDocker's Guild - Book A - Sounds Of Future Past.wav

     Peak level 98.8 %
     Extraction speed 4.8 X
     Range quality 100.0 %
     Test CRC 4A5ED0DF
     Copy CRC 4A5ED0DF
     Copy OK

No errors occurred

AccurateRip summary

Track  1  not present in database
Track  2  not present in database
Track  3  not present in database
Track  4  not present in database
Track  5  not present in database
Track  6  not present in database
Track  7  not present in database
Track  8  not present in database
Track  9  not present in database
Track 10  not present in database
Track 11  not present in database
Track 12  not present in database
Track 13  not present in database
Track 14  not present in database

None of the tracks are present in the AccurateRip database

End of status report

==== Log checksum 1E1CF6C8C04B2028E2B18290BB1D816A79D0C59F9B02167C9DFA38D49DF86165 ====

Single download
Dockers Guild – Space 99 Year One Theme 1:08
Dockers Guild – Flash Gordon Suite 15:21
Dockers Guild – Barbarella 4:22
Dockers Guild – Suspension 4:21
Dockers Guild – When The Wind Blows 3:32
Dockers Guild – The Neverending Story 3:05
Dockers Guild – Red Dwarf Theme 4:47
Dockers Guild – The White Light/Echoes From The Past/Dying Station/Delenn’s Sunrise 5:41
Dockers Guild – Doctor Who Main Theme 2:53
Dockers Guild – UFO Main theme 1:15
Dockers Guild – The Black Hole End Title 2:35
Dockers Guild – Space Patrol 2:04
Dockers Guild – Dune Suite 11:08
Dockers Guild – Space 99 Year Two Main Theme 1:25

Category:Rock
Main catalog

Recommended:

U.K. – Danger Money (1979-2006) FLAC (image + .cue) Elvis Presley – Elvis Sings the Wonderful World of Christmas (2011) FLAC (tracks + .cue) The Beach Boys – Surfin’ Safari (1962) – Surfin’ USA (1963) FLAC (image+.cue)

About the Author:

music