Dukes of the Orient – Dukes of the Orient (2018) FLAC (tracks + .cue) music Lossless

Dukes of the Orient - Dukes of the Orient (2018) FLAC (tracks + .cue)
Artist: Dukes of the Orient | Album: Dukes of the Orient | Label: Frontiers Records | Catalog #: FR CD 845 | Released: 2018 | Genre: Rock, Melodic Rock, AOR | Country: UK, USA | Duration: 00:53:08

Tracklisting:

01. Brother In Arms (05:23)
02. Strange Days (05:35)
03. Amor Vincit Omnia (05:45)
04. Time Waits For No One (06:06)
05. A Sorrow’s Crown (05:07)
06. Fourth Of July (08:28)
07. Seasons Will Change (06:40)
08. Give Another Reason (10:09)

 Log Exact Audio Copy

Exact Audio Copy V1.1 from 23. June 2015

EAC extraction logfile from 5. April 2018, 11:05

Dukes Of The Orient / Dukes Of The Orient

Used drive : TSSTcorpCDDVDW SH-224DB Adapter: 1 ID: 0

Read mode : Secure
Utilize accurate stream : Yes
Defeat audio cache : Yes
Make use of C2 pointers : No

Read offset correction : 6
Overread into Lead-In and Lead-Out : No
Fill up missing offset samples with silence : Yes
Delete leading and trailing silent blocks : No
Null samples used in CRC calculations : Yes
Used interface : Native Win32 interface for Win NT & 2000
Gap handling : Appended to previous track

Used output format : User Defined Encoder
Selected bitrate : 1024 kBit/s
Quality : High
Add ID3 tag : No
Command line compressor : C:Program Files (x86)Exact Audio Copywin64flac.exe
Additional command line options : -8 -V -T "ARTIST=%artist%" -T "TITLE=%title%" -T "ALBUM=%albumtitle%" -T "DATE=%year%" -T "TRACKNUMBER=%tracknr%" -T "GENRE=%genre%" -T "COMMENT=%comment%" %source% -o %dest%

TOC of the extracted CD

Track | Start | Length | Start sector | End sector
---------------------------------------------------------
1 | 0:00.00 | 5:22.61 | 0 | 24210
2 | 5:22.61 | 5:34.16 | 24211 | 49276
3 | 10:57.02 | 5:44.23 | 49277 | 75099
4 | 16:41.25 | 6:05.13 | 75100 | 102487
5 | 22:46.38 | 5:06.07 | 102488 | 125444
6 | 27:52.45 | 8:27.68 | 125445 | 163537
7 | 36:20.38 | 6:39.11 | 163538 | 193473
8 | 42:59.49 | 10:08.45 | 193474 | 239118

Track 1

Filename F:Sket4erDukes Of The Orient

Single download
Dukes of the Orient - Brother In Arms 05:23
Dukes of the Orient - Strange Days 05:35
Dukes of the Orient - Amor Vincit Omnia 05:45
Dukes of the Orient - Time Waits For No One 06:06
Dukes of the Orient - A Sorrow's Crown 05:07
Dukes of the Orient - Fourth Of July 08:28
Dukes of the Orient - Seasons Will Change 06:40
Dukes of the Orient - Give Another Reason 10:09

Category:Rock
Main catalog

Recommended:

Skin Alley -Skintight (1973-1989) FLAC (image + .cue) VA - Taste of Christmas (2005) FLAC (tracks + .cue) Cocola - Essere Essenziali Esistere (2002) WV (image + .cue)

About the Author:

music