Fu Manchu – Clone of the Universe (2018) FLAC (tracks + .cue) music Lossless

Fu Manchu - Clone of the Universe (2018) FLAC (tracks + .cue)
Artist: Fu Manchu | Album: Clone of the Universe | Released: 2018 | Label: At The Dojo Records | Catalog #: ATD014 | Genre: Rock, Stoner Rock | Country: US | Duration: 00:36:48

Tracklisting:

01. Intelligent Worship (3:07)
02. (I’ve Been) Hexed (2:48)
03. Don’t Panic (2:04)
04. Slower Than Light (3:26)
05. Nowhere Left to Hide (4:19)
06. Clone of the Universe (2:57)
07. Il Mostro Atomico (18:07)

 Log Exact Audio Copy

Exact Audio Copy V1.3 from 2. September 2016

EAC extraction logfile from 7. February 2018, 22:50

Fu Manchu / Clone of the Universe

Used drive  : HL-DT-STBDDVDRW CP40NG10   Adapter: 1  ID: 0

Read mode               : Secure
Utilize accurate stream : Yes
Defeat audio cache      : Yes
Make use of C2 pointers : No

Read offset correction                      : 102
Overread into Lead-In and Lead-Out          : No
Fill up missing offset samples with silence : Yes
Delete leading and trailing silent blocks   : No
Null samples used in CRC calculations       : Yes
Used interface                              : Native Win32 interface for Win NT & 2000
Gap handling                                : Appended to previous track

Used output format              : User Defined Encoder
Selected bitrate                : 128 kBit/s
Quality                         : High
Add ID3 tag                     : No
Command line compressor         : C:Program Files (x86)Exact Audio CopyFlacflac.exe
Additional command line options : -8 -e -p -V -T "ARTIST=%artist%" -T "TITLE=%title%" -T "ALBUM=%albumtitle%" -T "DATE=%year%" -T "TRACKNUMBER=%tracknr%" -T "GENRE=%genre%" -T "PERFORMER=%albuminterpret%" -T "COMPOSER=%composer%" %haslyrics%--tag-from-file=LYRICS="%lyricsfile%"%haslyrics% -T "ALBUMARTIST=%albumartist%" -T "DISCNUMBER=%cdnumber%" -T "TOTALDISCS=%totalcds%" -T "TOTALTRACKS=%numtracks%" -T "COMMENT=%comment%" %source% -o %dest%


TOC of the extracted CD

     Track |   Start  |  Length  | Start sector | End sector 
    ---------------------------------------------------------
        1  |  0:00.00 |  3:07.04 |         0    |    14028   
        2  |  3:07.04 |  2:47.54 |     14029    |    26607   
        3  |  5:54.58 |  2:04.01 |     26608    |    35908   
        4  |  7:58.59 |  3:25.69 |     35909    |    51352   
        5  | 11:24.53 |  4:18.66 |     51353    |    70768   
        6  | 15:43.44 |  2:57.31 |     70769    |    84074   
        7  | 18:41.00 | 18:07.00 |     84075    |   165599   


Track  1

     Filename C:EACFu Manchu - Clone of the Universe (2018) (FLAC)1 - Intelligent Worship.wav

     Pre-gap length  0:00:02.00

     Peak level 98.5 %
     Extraction speed 1.1 X
     Track quality 100.0 %
     Test CRC 5E34DC60
     Copy CRC 5E34DC60
     Track not present in AccurateRip database
     Copy OK

Track  2

     Filename C:EACFu Manchu - Clone of the Universe (2018) (FLAC)2 - (I've Been) Hexed.wav

     Peak level 98.5 %
     Extraction speed 0.7 X
     Track quality 99.8 %
     Test CRC E5EFDE80
     Copy CRC E5EFDE80
     Track not present in AccurateRip database
     Copy OK

Track  3

     Filename C:EACFu Manchu - Clone of the Universe (2018) (FLAC)3 - Don't Panic.wav

     Peak level 98.4 %
     Extraction speed 0.6 X
     Track quality 99.7 %
     Test CRC E77062E6
     Copy CRC E77062E6
     Track not present in AccurateRip database
     Copy OK

Track  4

     Filename C:EACFu Manchu - Clone of the Universe (2018) (FLAC)4 - Slower Than Light.wav

     Peak level 98.8 %
     Extraction speed 0.9 X
     Track quality 99.8 %
     Test CRC 6E520B44
     Copy CRC 6E520B44
     Track not present in AccurateRip database
     Copy OK

Track  5

     Filename C:EACFu Manchu - Clone of the Universe (2018) (FLAC)5 - Nowhere Left to Hide.wav

     Peak level 98.5 %
     Extraction speed 0.7 X
     Track quality 99.7 %
     Test CRC 80714664
     Copy CRC 80714664
     Track not present in AccurateRip database
     Copy OK

Track  6

     Filename C:EACFu Manchu - Clone of the Universe (2018) (FLAC)6 - Clone of the Universe.wav

     Peak level 98.5 %
     Extraction speed 1.2 X
     Track quality 99.9 %
     Test CRC D8F85223
     Copy CRC D8F85223
     Track not present in AccurateRip database
     Copy OK

Track  7

     Filename C:EACFu Manchu - Clone of the Universe (2018) (FLAC)7 - Il Mostro Atomico.wav

     Peak level 98.5 %
     Extraction speed 1.6 X
     Track quality 99.9 %
     Test CRC AE9611F3
     Copy CRC AE9611F3
     Track not present in AccurateRip database
     Copy OK


None of the tracks are present in the AccurateRip database

No errors occurred

End of status report

---- CUETools DB Plugin V2.1.6

[CTDB TOCID: ZlZV3ImIQrPx7p2HRRuNX_KpOto-] found
Submit result: already submitted
Track | CTDB Status
  1   | (1/1) Accurately ripped
  2   | (1/1) Accurately ripped
  3   | (1/1) Accurately ripped
  4   | (1/1) Accurately ripped
  5   | (1/1) Accurately ripped
  6   | (1/1) Accurately ripped
  7   | (1/1) Accurately ripped


==== Log checksum 8F88CCB952E4A36C01E96E81B31A4D5BCE37D66944E1A7F6251EA9B061C621C6 ====

Single download
Fu Manchu – Intelligent Worship 3:07
Fu Manchu – I’ve Been
Fu Manchu – Don’t Panic 2:04
Fu Manchu – Slower Than Light 3:26
Fu Manchu – Nowhere Left to Hide 4:19
Fu Manchu – Clone of the Universe 2:57
Fu Manchu – Il Mostro Atomico 18:07

Category:Rock
Main catalog

Recommended:

Snowy White – The Best Of Snowy White (2009) FLAC (tracks + .cue) Gerard Way (My Chemical Romance) – Hesitant Alien (2014) FLAC (tracks+.cue) Dread Zeppelin – The First No-Elvis (1994) FLAC (tracks)

About the Author:

music