Glass Hammer – Untold Tales (2017) FLAC (tracks + .cue) music Lossless

Glass Hammer - Untold Tales (2017) FLAC (tracks + .cue)
Artist: Glass Hammer | Album: Untold Tales | Released: 2017 | Label: Sound Resources | Catalog #: SR3829 | Genre: Rock, Progressive Rock | Country: US | Duration: 01:12:05

Tracklisting:

01. Shadows Of The Past 2008 (2:25)
02. Infusion (3:17)
03. Identity Principle (12:38)
04. Hold Your Head Up (4:18)
05. Babb’s Bach (3:18)
06. And Then She Sighed (2:00)
07. Eiger Dreams (2:24)
08. It’s All Too Much (4:37)
09. Troll (5:04)
10. A Grain Of Sand (2:58)
11. Cool Air (9:44)
12. The Impulsive Type (4:38)
13. No Man’s Land Live (14:44)

 Log Exact Audio Copy

Exact Audio Copy V1.1 from 23. June 2015

EAC extraction logfile from 28. January 2018, 15:15

Glass Hammer / Untold Tales

Used drive : TSSTcorpCDDVDW SH-224DB Adapter: 1 ID: 0

Read mode : Secure
Utilize accurate stream : Yes
Defeat audio cache : Yes
Make use of C2 pointers : No

Read offset correction : 6
Overread into Lead-In and Lead-Out : No
Fill up missing offset samples with silence : Yes
Delete leading and trailing silent blocks : No
Null samples used in CRC calculations : Yes
Used interface : Native Win32 interface for Win NT & 2000
Gap handling : Appended to previous track

Used output format : User Defined Encoder
Selected bitrate : 1024 kBit/s
Quality : High
Add ID3 tag : No
Command line compressor : C:Program Files (x86)Exact Audio Copywin64flac.exe
Additional command line options : -8 -V -T "ARTIST=%artist%" -T "TITLE=%title%" -T "ALBUM=%albumtitle%" -T "DATE=%year%" -T "TRACKNUMBER=%tracknr%" -T "GENRE=%genre%" -T "COMMENT=%comment%" %source% -o %dest%

TOC of the extracted CD

Track | Start | Length | Start sector | End sector
---------------------------------------------------------
1 | 0:00.00 | 2:25.22 | 0 | 10896
2 | 2:25.22 | 3:16.61 | 10897 | 25657
3 | 5:42.08 | 12:38.00 | 25658 | 82507
4 | 18:20.08 | 4:17.49 | 82508 | 101831
5 | 22:37.57 | 3:18.31 | 101832 | 116712
6 | 25:56.13 | 1:59.62 | 116713 | 125699
7 | 27:56.00 | 2:23.41 | 125700 | 136465
8 | 30:19.41 | 4:36.68 | 136466 | 157233
9 | 34:56.34 | 5:03.57 | 157234 | 180015
10 | 40:00.16 | 2:58.06 | 180016 | 193371
11 | 42:58.22 | 9:44.00 | 193372 | 237171
12 | 52:42.22 | 4:38.20 | 237172 | 258041
13 | 57:20.42 | 14:44.20 | 258042 | 324361

Track 1

Filename F:Sket4erGlass Hammer

Single download
Glass Hammer - Shadows Of The Past 2008 2:25
Glass Hammer - Infusion 3:17
Glass Hammer - Identity Principle 12:38
Glass Hammer - Hold Your Head Up 4:18
Glass Hammer - Babb's Bach 3:18
Glass Hammer - And Then She Sighed 2:00
Glass Hammer - Eiger Dreams 2:24
Glass Hammer - It's All Too Much 4:37
Glass Hammer - Troll 5:04
Glass Hammer - A Grain Of Sand 2:58
Glass Hammer - Cool Air 9:44
Glass Hammer - The Impulsive Type 4:38
Glass Hammer - No Man's Land Live 14:44

Category:Rock
Main catalog

Recommended:

Neil Young - Live On Air The Lost Tapes Vol.2 (2011) FLAC The Boomtown Rats - The Boomtown Rats (1977) FLAC Steve Harley & Cockney Rebel - The Quality of Mercy (2005) FLAC

About the Author:

music