Greg Lake – Greg Lake (1981, 1993) FLAC (image + .cue) music Lossless

Greg Lake - Greg Lake (1981, 1993) FLAC (image + .cue)
Artist: Greg Lake | Album: Greg Lake | Released: 1981, 1993 | Label: Chrysalis | Catalog #: TOCP-7623 | Genre: Rock, Classic Rock | Country: UK | Duration: 00:43:13

Tracklisting:

01. Nuclear Attack (4:32)
02. Love You Too Much (3:56)
03. It Hurts (4:30)
04. Black And Blue (3:59)
05. Retribution Drive (5:05)
06. Long Goodbye (4:00)
07. The Lie (4:47)
08. Someone (4:12)
09. Let Me Love You Once Before You Go (4:21)
10. For Those Who Dare (3:51)

 Log Exact Audio Copy

Exact Audio Copy V1.3 from 2. September 2016

EAC extraction logfile from 8. January 2018, 20:23

Greg Lake / Greg Lake

Used drive  : TSSTcorpCDDVDW TS-L633B   Adapter: 1  ID: 0

Read mode               : Secure
Utilize accurate stream : Yes
Defeat audio cache      : Yes
Make use of C2 pointers : No

Read offset correction                      : 6
Overread into Lead-In and Lead-Out          : No
Fill up missing offset samples with silence : Yes
Delete leading and trailing silent blocks   : No
Null samples used in CRC calculations       : Yes
Used interface                              : Native Win32 interface for Win NT & 2000

Used output format : Internal WAV Routines
Sample format      : 44.100 Hz; 16 Bit; Stereo


TOC of the extracted CD

     Track |   Start  |  Length  | Start sector | End sector 
    ---------------------------------------------------------
        1  |  0:00.00 |  4:31.72 |         0    |    20396   
        2  |  4:31.72 |  3:56.30 |     20397    |    38126   
        3  |  8:28.27 |  4:30.05 |     38127    |    58381   
        4  | 12:58.32 |  3:58.73 |     58382    |    76304   
        5  | 16:57.30 |  5:05.07 |     76305    |    99186   
        6  | 22:02.37 |  3:59.55 |     99187    |   117166   
        7  | 26:02.17 |  4:47.00 |    117167    |   138691   
        8  | 30:49.17 |  4:11.48 |    138692    |   157564   
        9  | 35:00.65 |  4:20.60 |    157565    |   177124   
       10  | 39:21.50 |  3:51.22 |    177125    |   194471   


Range status and errors

Selected range

     Filename F:AlexharveyGreg Lake - Greg Lake.wav

     Peak level 96.9 %
     Extraction speed 2.6 X
     Range quality 100.0 %
     Test CRC 476165F9
     Copy CRC 476165F9
     Copy OK

No errors occurred

 
AccurateRip summary
 
Track  1  accurately ripped (confidence 2)  [C9F74716]  (AR v2)
Track  2  accurately ripped (confidence 3)  [18580439]  (AR v1)
Track  3  accurately ripped (confidence 2)  [8101A676]  (AR v2)
Track  4  accurately ripped (confidence 2)  [F757FBCC]  (AR v2)
Track  5  accurately ripped (confidence 2)  [C2B9AF23]  (AR v2)
Track  6  accurately ripped (confidence 2)  [4DB664C9]  (AR v2)
Track  7  accurately ripped (confidence 2)  [34CBFACE]  (AR v2)
Track  8  accurately ripped (confidence 2)  [05A339E4]  (AR v2)
Track  9  accurately ripped (confidence 2)  [8533B818]  (AR v2)
Track 10  accurately ripped (confidence 2)  [48BC8169]  (AR v2)
 
All tracks accurately ripped

End of status report

---- CUETools DB Plugin V2.1.6

[CTDB TOCID: IofYophmrS3guvMwePzAHAi8WbE-] found
Submit result: IofYophmrS3guvMwePzAHAi8WbE- has been confirmed
Track | CTDB Status
  1   | (19/19) Accurately ripped
  2   | (19/19) Accurately ripped
  3   | (18/19) Accurately ripped
  4   | (19/19) Accurately ripped
  5   | (19/19) Accurately ripped
  6   | (18/19) Accurately ripped
  7   | (18/19) Accurately ripped
  8   | (18/19) Accurately ripped
  9   | (19/19) Accurately ripped
 10   | (18/19) Accurately ripped


==== Log checksum DC59EE0AF6A9AB9AEEEED420A84A61CF01A76FB2D86BB93CA2C09022F82A09E9 ====

Single download
Greg Lake – Nuclear Attack 4:32
Greg Lake – Love You Too Much 3:56
Greg Lake – It Hurts 4:30
Greg Lake – Black And Blue 3:59
Greg Lake – Retribution Drive 5:05
Greg Lake – Long Goodbye 4:00
Greg Lake – The Lie 4:47
Greg Lake – Someone 4:12
Greg Lake – Let Me Love You Once Before You Go 4:21
Greg Lake – For Those Who Dare 3:51

Category:Rock
Main catalog

Recommended:

Carlos Santana – Shape Shifter (2012) FLAC (tracks+.cue) Nirvana – 1st Press from Japan (1989-1996) FLAC (image + .cue) Spirogyra – Old Boot Wine (Series: British Rock Masterpiece) (1972-2005) APE (image + .cue)

About the Author:

music