Khymera – The Greatest Wonder (2008) FLAC (image+ .cue) music Lossless

Khymera - The Greatest Wonder (2008) FLAC (image+ .cue)
Artist: Khymera | Album: The Greatest Wonder | Released: 2018 | Genre: Rock, Melodic Rock

Khymera is the melodic rock project of Daniel Liverani.
In 2003, Liverani, together with Steve Walsh, recorded the first album “Khymera”, but it turns out to be not entirely successful. In 2005, Liverani changes Walsh to Dennis Ward (Dennis Ward) and this is good for the project, the second album “A New Promise” is much better, but it still lacks density and sharpness, and the arrangements seem rustic.
Description:
In 2008, Liverani and Ward recorded “The Greatest Wonder”, which critics recognize as a model of melodic rock, great sound, excellent material, and Ward’s great vocals really put “The Greatest Wonder” among the best works in this direction.

Composition:
Daniele Liverani – Keyboards
Tommy Ermolli – guitar
Dario Ciccioni – drums
Dennis Ward – vocals

Tracklisting:

01. Ablaze (Intro)
02. Beautiful Life
03. Borderline
04. Burn Out
05. Since You Went Away
06. Love Has Been and Gone
07. No Sacrifice
08. The Greatest Wonder
09. Fight for Yesterday
10. If I Can’t Be
11. Love Will Find You
12. Stay Forever
13. The Other Side

 Log Exact Audio Copy


Exact Audio Copy V0.99 prebeta 5 from 4. May 2009

EAC extraction logfile from 12. January 2011, 19:56

Khymera / The Greatest Wonder

Used drive  : TSSTcorpCDDVDW SH-S223C   Adapter: 1  ID: 1

Read mode               : Secure
Utilize accurate stream : Yes
Defeat audio cache      : Yes
Make use of C2 pointers : No

Read offset correction                      : 697
Overread into Lead-In and Lead-Out          : No
Fill up missing offset samples with silence : Yes
Delete leading and trailing silent blocks   : No
Null samples used in CRC calculations       : Yes
Used interface                              : Installed external ASPI interface

Used output format : Internal WAV Routines
Sample format      : 44.100 Hz; 16 Bit; Stereo

TOC of the extracted CD

     Track |   Start  |  Length  | Start sector | End sector
    ---------------------------------------------------------
        1  |  0:00.00 |  1:25.61 |         0    |     6435
        2  |  1:25.61 |  4:11.64 |      6436    |    25324
        3  |  5:37.50 |  4:01.08 |     25325    |    43407
        4  |  9:38.58 |  4:36.34 |     43408    |    64141
        5  | 14:15.17 |  3:55.22 |     64142    |    81788
        6  | 18:10.39 |  4:15.67 |     81789    |   100980
        7  | 22:26.31 |  4:57.25 |    100981    |   123280
        8  | 27:23.56 |  3:35.16 |    123281    |   139421
        9  | 30:58.72 |  4:27.73 |    139422    |   159519
       10  | 35:26.70 |  4:28.34 |    159520    |   179653
       11  | 39:55.29 |  4:21.54 |    179654    |   199282
       12  | 44:17.08 |  5:24.20 |    199283    |   223602
       13  | 49:41.28 |  4:58.41 |    223603    |   245993

Range status and errors

Selected range

     Filename E:Khymera - The Greatest Wonder (2008)The Greatest Wonder.wav

     Peak level 100.0 %
     Range quality 100.0 %
     Copy CRC 02E9F786
     Copy OK

No errors occurred

End of status report

Single download
Khymera – Ablaze Intro
Khymera – Beautiful Life
Khymera – Borderline
Khymera – Burn Out
Khymera – Since You Went Away
Khymera – Love Has Been and Gone
Khymera – No Sacrifice
Khymera – The Greatest Wonder
Khymera – Fight for Yesterday
Khymera – If I Can’t Be
Khymera – Love Will Find You
Khymera – Stay Forever
Khymera – The Other Side

Category:Rock
Main catalog

Recommended:

The Letter Black – Hanging On By A Thread (2010) FLAC (tracks + .cue) The Kinks – Face to Face (1966, 2018) FLAC (tracks) Downliners Sekt – The Saltire Wave (2008) FLAC (tracks + .cue)

About the Author:

music