Leon Russell – Anything Can Happen (1992) FLAC (tracks + .cue) music Lossless

Leon Russell - Anything Can Happen (1992) FLAC (tracks + .cue)
Artist: Leon Russell | Album: Anything Can Happen | Released: 1992 | Label: Virgin | Catalog #: CDVUS 50 | Genre: Rock | Country: US | Duration: 00:36:28

Tracklisting:

01. Anything Can Happen (4:07)
02. Black Halos (3:44)
03. No Man’s Land (3:39)
04. Too Much Monkey Business (2:59)
05. Angel Ways (4:02)
06. Life Of The Party (2:51)
07. Stranded On Easy Street (4:26)
08. Jezebel (3:52)
09. Love Slave (3:02)
10. Faces Of The Children (3:45)

 Log Exact Audio Copy

Exact Audio Copy V0.99 prebeta 3 from 28. July 2007

EAC extraction logfile from 25. April 2011, 22:32

Leon Russell / Anything Can Happen

Used drive  : SONY    CD-RW  CRX217E   Adapter: 0  ID: 0

Read mode               : Secure
Utilize accurate stream : Yes
Defeat audio cache      : Yes
Make use of C2 pointers : No

Read offset correction                      : 6
Overread into Lead-In and Lead-Out          : No
Fill up missing offset samples with silence : Yes
Delete leading and trailing silent blocks   : No
Null samples used in CRC calculations       : Yes
Used interface                              : Native Win32 interface for Win NT & 2000
Gap handling                                : Appended to previous track

Used output format              : User Defined Encoder
Selected bitrate                : 320 kBit/s
Quality                         : High
Add ID3 tag                     : No
Command line compressor         : C:Program FilesExact Audio CopyFlacflac.exe
Additional command line options : -V -8 -T "artist=%a" -T "title=%t" -T "album=%g" -T "date=%y" -T "tracknumber=%n" -T "genre=%m" %s 


TOC of the extracted CD

     Track |   Start  |  Length  | Start sector | End sector 
    ---------------------------------------------------------
        1  |  0:00.20 |  4:06.47 |        20    |    18516   
        2  |  4:06.67 |  3:43.73 |     18517    |    35314   
        3  |  7:50.65 |  3:39.20 |     35315    |    51759   
        4  | 11:30.10 |  2:59.02 |     51760    |    65186   
        5  | 14:29.12 |  4:01.73 |     65187    |    83334   
        6  | 18:31.10 |  2:51.00 |     83335    |    96159   
        7  | 21:22.10 |  4:26.27 |     96160    |   116136   
        8  | 25:48.37 |  3:51.73 |    116137    |   133534   
        9  | 29:40.35 |  3:02.22 |    133535    |   147206   
       10  | 32:42.57 |  3:45.35 |    147207    |   164116   


Track  1

     Filename F:EAC RIPSLeon Russell - 1992 - Anything Can Happen [FLAC]1 - Anything Can Happen.wav

     Pre-gap length  0:00:02.26

     Peak level 90.5 %
     Track quality 100.0 %
     Test CRC 2FE38F62
     Copy CRC 2FE38F62
     Accurately ripped (confidence 7)  [04CBCA64]
     Copy OK

Track  2

     Filename F:EAC RIPSLeon Russell - 1992 - Anything Can Happen [FLAC]2 - Black Halos.wav

     Peak level 97.2 %
     Track quality 100.0 %
     Test CRC 51136F42
     Copy CRC 51136F42
     Accurately ripped (confidence 7)  [9B04FFCD]
     Copy OK

Track  3

     Filename F:EAC RIPSLeon Russell - 1992 - Anything Can Happen [FLAC]3 - No Man's Land.wav

     Peak level 91.7 %
     Track quality 99.9 %
     Test CRC 5C001F19
     Copy CRC 5C001F19
     Accurately ripped (confidence 7)  [76BA6F82]
     Copy OK

Track  4

     Filename F:EAC RIPSLeon Russell - 1992 - Anything Can Happen [FLAC]4 - Too Much Monkey Business.wav

     Peak level 97.2 %
     Track quality 100.0 %
     Test CRC D8857EE6
     Copy CRC D8857EE6
     Accurately ripped (confidence 7)  [CB6FC155]
     Copy OK

Track  5

     Filename F:EAC RIPSLeon Russell - 1992 - Anything Can Happen [FLAC]5 - Angel Ways.wav

     Peak level 97.2 %
     Track quality 100.0 %
     Test CRC 15548411
     Copy CRC 15548411
     Accurately ripped (confidence 7)  [575BC0B6]
     Copy OK

Track  6

     Filename F:EAC RIPSLeon Russell - 1992 - Anything Can Happen [FLAC]6 - Life Of The Party.wav

     Peak level 97.2 %
     Track quality 99.9 %
     Test CRC B6638A01
     Copy CRC B6638A01
     Accurately ripped (confidence 7)  [274B2314]
     Copy OK

Track  7

     Filename F:EAC RIPSLeon Russell - 1992 - Anything Can Happen [FLAC]7 - Stranded On Easy Street.wav

     Peak level 97.2 %
     Track quality 100.0 %
     Test CRC 3AFE2B03
     Copy CRC 3AFE2B03
     Accurately ripped (confidence 7)  [B4BED8FD]
     Copy OK

Track  8

     Filename F:EAC RIPSLeon Russell - 1992 - Anything Can Happen [FLAC]8 - Jezebel.wav

     Peak level 97.2 %
     Track quality 100.0 %
     Test CRC 4DA14488
     Copy CRC 4DA14488
     Accurately ripped (confidence 7)  [A16EB9BE]
     Copy OK

Track  9

     Filename F:EAC RIPSLeon Russell - 1992 - Anything Can Happen [FLAC]9 - Love Slave.wav

     Peak level 97.2 %
     Track quality 99.9 %
     Test CRC E29D2BE8
     Copy CRC E29D2BE8
     Accurately ripped (confidence 7)  [254A5F65]
     Copy OK

Track 10

     Filename F:EAC RIPSLeon Russell - 1992 - Anything Can Happen [FLAC]10 - Faces Of The Children.wav

     Peak level 70.5 %
     Track quality 99.9 %
     Test CRC 0729A935
     Copy CRC 0729A935
     Accurately ripped (confidence 7)  [ACC2A53E]
     Copy OK


All tracks accurately ripped

No errors occurred

End of status report

Single download
Leon Russell – Anything Can Happen 4:07
Leon Russell – Black Halos 3:44
Leon Russell – No Man’s Land 3:39
Leon Russell – Too Much Monkey Business 2:59
Leon Russell – Angel Ways 4:02
Leon Russell – Life Of The Party 2:51
Leon Russell – Stranded On Easy Street 4:26
Leon Russell – Jezebel 3:52
Leon Russell – Love Slave 3:02
Leon Russell – Faces Of The Children 3:45

Category:Rock
Main catalog

Recommended:

The Neighbourhood – I Love You. (Bonus Track) (2013) FLAC (tracks) The Rolling Stones – You Got Me Rocking (Live) (2018) (24bit Single) FLAC Evanescence – Greatest Hits (2012) FLAC (image + .cue)

About the Author:

music