Liam Russell – No Contest (2018) (24bit Hi-Res) FLAC music Lossless

Liam Russell - No Contest (2018) (24bit Hi-Res) FLAC
Artist: Liam Russell | Album: No Contest | Released: 2018 | Genre: Rock

Tracklisting:

01. Liam Russell – I Think About You (03:24)
02. Liam Russell – Lafayette (03:12)
03. Liam Russell – Half Chance (03:45)
04. Liam Russell – Dreamer’s Rock (04:19)
05. Liam Russell – To Be a Man (04:19)
06. Liam Russell – Rather Be (05:14)

 Dynamic Range Meter

foobar2000 1.3.1 / Dynamic Range Meter 1.1.1
log date: 2018-11-27 20:23:40
--------------------------------------------------------------------------------
Analyzed: Liam Russell / No Contest
--------------------------------------------------------------------------------
DR         Peak         RMS     Duration Track
--------------------------------------------------------------------------------
DR7       -0.20 dB    -9.59 dB      3:24 01-I Think About You
DR6       -0.20 dB    -8.14 dB      3:12 02-Lafayette
DR8       -0.20 dB    -9.94 dB      3:45 03-Half Chance
DR7       -0.20 dB    -9.74 dB      4:19 04-Dreamer's Rock
DR10      -0.20 dB   -12.84 dB      4:20 05-To Be a Man
DR8       -0.20 dB   -10.76 dB      5:15 06-Rather Be
--------------------------------------------------------------------------------
Number of tracks:  6
Official DR value: DR8
Samplerate:        96000 Hz
Channels:          2
Bits per sample:   24
Bitrate:           2651 kbps
Codec:             FLAC
================================================================================

Single download
Liam Russell – Liam Russell – I Think About You 03:24
Liam Russell – Liam Russell – Lafayette 03:12
Liam Russell – Liam Russell – Half Chance 03:45
Liam Russell – Liam Russell – Dreamer’s Rock 04:19
Liam Russell – Liam Russell – To Be a Man 04:19
Liam Russell – Liam Russell – Rather Be 05:14

Category:Rock
Main catalog

Recommended:

VA – Taste of Christmas (2005) FLAC (tracks + .cue) Talking Heads – Naked (1988) APE (image+.cue) Railroad Earth – 2015-01-15 First Avenue, Minneapolis, MN (Concert Recording) (2015) FLAC

About the Author:

music