Linda Ronstadt and Emmylou Harris – Western Wall – The Tucson Sessions (1999) FLAC (tracks + .cue) music Lossless

Linda Ronstadt and Emmylou Harris - Western Wall - The Tucson Sessions (1999) FLAC (tracks + .cue)
Artist: Linda Ronstadt and Emmylou Harris | Album: Western Wall – The Tucson Sessions | Released: 1999 | Label: Asylum Records, US | Catalog #: 62408-2 | Genre: Country, Rock | Country: US | Duration: 00:50:48

Tracklisting:

01. Loving the Highway Man (3:31)
02. Raise the Dead (3:19)
03. For a Dancer (4:44)
04. Western Wall (2:35)
05. 1917 (5:25)
06. He Was Mine (3:19)
07. Sweet Spot (3:35)
08. Sisters of Mercy (3:59)
09. Falling Down (3:16)
10. Valerie (4:04)
11. This is to Mother You (3:17)
12. All I Left Behind (3:24)
13. Across the Border (6:20)

 Log Exact Audio Copy

Exact Audio Copy V0.99 prebeta 5 from 4. May 2009

EAC extraction logfile from 24. March 2010, 23:48

Linda Ronstadt & Emmylou Harris / Western Wall - The Tucson Sessions

Used drive  : PIONEER DVD-RW  DVR-111D   Adapter: 1  ID: 3

Read mode               : Secure
Utilize accurate stream : Yes
Defeat audio cache      : Yes
Make use of C2 pointers : No

Read offset correction                      : 48
Overread into Lead-In and Lead-Out          : No
Fill up missing offset samples with silence : Yes
Delete leading and trailing silent blocks   : No
Null samples used in CRC calculations       : Yes
Used interface                              : Installed external ASPI interface
Gap handling                                : Appended to previous track

Used output format              : User Defined Encoder
Selected bitrate                : 768 kBit/s
Quality                         : High
Add ID3 tag                     : No
Command line compressor         : C:Program FilesExact Audio CopyFLACFLAC.EXE
Additional command line options : -8 -V -T "ARTIST=%a" -T "TITLE=%t" -T "ALBUM=%g" -T "DATE=%y" -T "TRACKNUMBER=%n" -T "GENRE=%m" -T "COMMENT=EAC FLAC -8" %s


TOC of the extracted CD

     Track |   Start  |  Length  | Start sector | End sector 
    ---------------------------------------------------------
        1  |  0:00.32 |  3:31.20 |        32    |    15876   
        2  |  3:31.52 |  3:18.45 |     15877    |    30771   
        3  |  6:50.22 |  4:43.58 |     30772    |    52054   
        4  | 11:34.05 |  2:35.17 |     52055    |    63696   
        5  | 14:09.22 |  5:25.30 |     63697    |    88101   
        6  | 19:34.52 |  3:19.33 |     88102    |   103059   
        7  | 22:54.10 |  3:35.02 |    103060    |   119186   
        8  | 26:29.12 |  3:58.70 |    119187    |   137106   
        9  | 30:28.07 |  3:15.58 |    137107    |   151789   
       10  | 33:43.65 |  4:03.47 |    151790    |   170061   
       11  | 37:47.37 |  3:16.73 |    170062    |   184834   
       12  | 41:04.35 |  3:23.52 |    184835    |   200111   
       13  | 44:28.12 |  6:19.63 |    200112    |   228599   


Track  1

     Filename F:New Folder1 - Loving the Highway Man.wav

     Pre-gap length  0:00:02.42

     Peak level 99.5 %
     Track quality 100.0 %
     Test CRC 590868FA
     Copy CRC 590868FA
     Accurately ripped (confidence 49)  [DEC6561D]
     Copy OK

Track  2

     Filename F:New Folder2 - Raise the Dead.wav

     Peak level 99.3 %
     Track quality 100.0 %
     Test CRC 7995AA40
     Copy CRC 7995AA40
     Accurately ripped (confidence 49)  [77B46057]
     Copy OK

Track  3

     Filename F:New Folder3 - For a Dancer.wav

     Peak level 94.0 %
     Track quality 100.0 %
     Test CRC 67698E75
     Copy CRC 67698E75
     Accurately ripped (confidence 48)  [AD31B1D0]
     Copy OK

Track  4

     Filename F:New Folder4 - Western Wall.wav

     Peak level 96.7 %
     Track quality 100.0 %
     Test CRC D56EFFE9
     Copy CRC D56EFFE9
     Accurately ripped (confidence 48)  [FF258FB2]
     Copy OK

Track  5

     Filename F:New Folder5 - 1917.wav

     Peak level 97.7 %
     Track quality 99.9 %
     Test CRC 7400FDD7
     Copy CRC 7400FDD7
     Accurately ripped (confidence 48)  [EF3D1413]
     Copy OK

Track  6

     Filename F:New Folder6 - He Was Mine.wav

     Peak level 99.4 %
     Track quality 100.0 %
     Test CRC 5D0B3873
     Copy CRC 5D0B3873
     Accurately ripped (confidence 49)  [D69629DD]
     Copy OK

Track  7

     Filename F:New Folder7 - Sweet Spot.wav

     Peak level 99.8 %
     Track quality 100.0 %
     Test CRC 39426C4A
     Copy CRC 39426C4A
     Accurately ripped (confidence 49)  [36988DE6]
     Copy OK

Track  8

     Filename F:New Folder8 - Sisters of Mercy.wav

     Peak level 98.4 %
     Track quality 100.0 %
     Test CRC 28CB3A32
     Copy CRC 28CB3A32
     Accurately ripped (confidence 49)  [91855613]
     Copy OK

Track  9

     Filename F:New Folder9 - Falling Down.wav

     Peak level 99.8 %
     Track quality 100.0 %
     Test CRC 2E6D6099
     Copy CRC 2E6D6099
     Accurately ripped (confidence 49)  [87F12DCD]
     Copy OK

Track 10

     Filename F:New Folder10 - Valerie.wav

     Pre-gap length  0:00:00.70

     Peak level 99.5 %
     Track quality 100.0 %
     Test CRC 283E6CFC
     Copy CRC 283E6CFC
     Accurately ripped (confidence 49)  [3265327D]
     Copy OK

Track 11

     Filename F:New Folder11 - This is to Mother You.wav

     Peak level 96.2 %
     Track quality 100.0 %
     Test CRC 740E9468
     Copy CRC 740E9468
     Accurately ripped (confidence 50)  [21BBD5A6]
     Copy OK

Track 12

     Filename F:New Folder12 - All I Left Behind.wav

     Peak level 94.9 %
     Track quality 100.0 %
     Test CRC 2987D79F
     Copy CRC 2987D79F
     Accurately ripped (confidence 49)  [F2E26709]
     Copy OK

Track 13

     Filename F:New Folder13 - Across the Border.wav

     Peak level 96.2 %
     Track quality 100.0 %
     Test CRC 093C54EE
     Copy CRC 093C54EE
     Accurately ripped (confidence 46)  [42EE0035]
     Copy OK


All tracks accurately ripped

No errors occurred

End of status report

Single download
Linda Ronstadt and Emmylou Harris – Loving the Highway Man 3:31
Linda Ronstadt and Emmylou Harris – Raise the Dead 3:19
Linda Ronstadt and Emmylou Harris – For a Dancer 4:44
Linda Ronstadt and Emmylou Harris – Western Wall 2:35
Linda Ronstadt and Emmylou Harris – 1917 5:25
Linda Ronstadt and Emmylou Harris – He Was Mine 3:19
Linda Ronstadt and Emmylou Harris – Sweet Spot 3:35
Linda Ronstadt and Emmylou Harris – Sisters of Mercy 3:59
Linda Ronstadt and Emmylou Harris – Falling Down 3:16
Linda Ronstadt and Emmylou Harris – Valerie 4:04
Linda Ronstadt and Emmylou Harris – This is to Mother You 3:17
Linda Ronstadt and Emmylou Harris – All I Left Behind 3:24
Linda Ronstadt and Emmylou Harris – Across the Border 6:20

Category:Rock
Main catalog

Recommended:

Борис Гребенщиков и Аквариум – Соль (2014) FLAC (tracks + .cue) Faith No More – We Care A Lot (2016) (24bit Hi-Res, Deluxe Band Edition, Remastered) FLAC Scorpions – Return to Forever (2015) FLAC (tracks)

About the Author:

music