Lou Gramm – Long Hard Look (1989) FLAC (image + .cue) music Lossless

Lou Gramm - Long Hard Look (1989) FLAC (image + .cue)
Artist: Lou Gramm | Album: Long Hard Look | Released: 1989 | Label: Atlantic | Catalog #: 7 81915-2, Club Edition | Genre: Rock | Country: USA | Duration: 00:45:24

Tracklisting:

01. Angel With A Dirty Face 5:15
02. Just Between You And Me 4:55
03. Broken Dreams 6:03
04. True Blue Love 4:52
05. I’ll Come Running 4:03
06. Hangin’ On My Hip 3:39
07. Warmest Rising Sun 5:17
08. Day One 3:17
09. I’ll Know When It’s Over 4:36
10. Tin Soldier 3:56

 Log Exact Audio Copy

Exact Audio Copy V1.3 from 2. September 2016

EAC extraction logfile from 21. March 2018, 16:44

Lou Gramm / Long Hard Look (Atlantic 7 81915-2, Club Edition)

Used drive : Optiarc DVD RW AD-5280S Adapter: 1 ID: 0

Read mode : Secure
Utilize accurate stream : Yes
Defeat audio cache : Yes
Make use of C2 pointers : No

Read offset correction : 48
Overread into Lead-In and Lead-Out : No
Fill up missing offset samples with silence : Yes
Delete leading and trailing silent blocks : No
Null samples used in CRC calculations : Yes
Used interface : Native Win32 interface for Win NT & 2000

Used output format : User Defined Encoder
Selected bitrate : 768 kBit/s
Quality : High
Add ID3 tag : No
Command line compressor : C:Program Files (x86)Exact Audio CopyFLACFLAC.EXE
Additional command line options : -6 -V -T "ARTIST=%artist%" -T "TITLE=%title%" -T "ALBUM=%albumtitle%" -T "DATE=%year%" -T "TRACKNUMBER=%tracknr%" -T "GENRE=%genre%" -T "COMMENT=%comment%" -T "BAND=%albuminterpret%" -T "ALBUMARTIST=%albuminterpret%" -T "COMPOSER=%composer%" %haslyrics%--tag-from-file=LYRICS="%lyricsfile%"%haslyrics% -T "DISCNUMBER=%cdnumber%" -T "TOTALDISCS=%totalcds%" -T "TOTALTRACKS=%numtracks%" %hascover%--picture="%coverfile%"%hascover% %source% -o %dest%

TOC of the extracted CD

Track | Start | Length | Start sector | End sector
---------------------------------------------------------
1 | 0:00.33 | 5:15.50 | 33 | 23707
2 | 5:16.08 | 4:56.05 | 23708 | 45912
3 | 10:12.13 | 5:57.27 | 45913 | 72714
4 | 16:09.40 | 5:00.35 | 72715 | 95249
5 | 21:10.00 | 4:05.43 | 95250 | 113667
6 | 25:15.43 | 3:39.07 | 113668 | 130099
7 | 28:54.50 | 5:11.18 | 130100 | 153442
8 | 34:05.68 | 3:17.50 | 153443 | 168267
9 | 37:23.43 | 4:37.47 | 168268 | 189089
10 | 42:01.15 | 3:23.35 | 189090 | 204349

Range status and errors

Selected range

Filename D:Lou Gramm - 1989 - Long Hard Look (Atlantic-7 81915-2, Club Edition, USA)Lou Gramm - Long Hard Look (Atlantic 7 81915-2, Club Edition).wav

Suspicious position 0:21:33

Peak level 100.0 %
Extraction speed 3.0 X
Range quality 99.9 %
Test CRC 5DC9BE92
Copy CRC 6BE1AB26
Copy finished

There were errors

AccurateRip summary

Track 1 accurately ripped (confidence 44) [654093C7] (AR v2)
Track 2 accurately ripped (confidence 43) [DC8065E4] (AR v2)
Track 3 accurately ripped (confidence 44) [96DA51F0] (AR v2)
Track 4 cannot be verified as accurate (confidence 44) [E753B08B], AccurateRip returned [12EA8BBF] (AR v2)
Track 5 cannot be verified as accurate (confidence 45) [4C23C755], AccurateRip returned [81C500BF] (AR v2)
Track 6 accurately ripped (confidence 43) [348CAE4F] (AR v2)
Track 7 accurately ripped (confidence 43) [7EF4F3D4] (AR v2)
Track 8 accurately ripped (confidence 44) [DE62C6B0] (AR v2)
Track 9 accurately ripped (confidence 44) [6140F941] (AR v2)
Track 10 accurately ripped (confidence 45) [48597A93] (AR v2)

8

Single download
Lou Gramm - Angel With A Dirty Face 5:15
Lou Gramm - Just Between You And Me 4:55
Lou Gramm - Broken Dreams 6:03
Lou Gramm - True Blue Love 4:52
Lou Gramm - I'll Come Running 4:03
Lou Gramm - Hangin' On My Hip 3:39
Lou Gramm - Warmest Rising Sun 5:17
Lou Gramm - Day One 3:17
Lou Gramm - I'll Know When It's Over 4:36
Lou Gramm - Tin Soldier 3:56

Category:Rock
Main catalog

Recommended:

Brainstorm - Online (2001) FLAC (tracks + .cue) The Fray - Helios (2014) FLAC (image + .cue) The Hollies - Four More Hollies Originals (1996) FLAC (image + .cue)

About the Author:

music