Marty Balin – Balin (1981, 2008) FLAC (image + .cue) music Lossless

Marty Balin - Balin (1981, 2008) FLAC (image + .cue)
Artist: Marty Balin | Album: Balin | Released: 1981, 2008 | Label: American Beat Records, US | Catalog #: 24692 | Genre: Rock, Pop Rock | Country: US | Duration: 00:35:38

Tracklisting:

01. Hearts (4:19)
02. You Left Your Mark On Me (4:43)
03. Lydia! (3:41)
04. Atlanda Lady (Something About Your Love) (3:49)
05. Spotlight (3:28)
06. I Do Believe In You (4:26)
07. Elvis And Marilyn (3:06)
08. Tell Me More (3:43)
09. Music Is The Light (4:22)

 Log Exact Audio Copy

Exact Audio Copy V1.3 from 2. September 2016

EAC extraction logfile from 25. March 2018, 18:44

Marty Balin / Balin

Used drive : TSSTcorpCD/DVDW SH-S182D Adapter: 1 ID: 0

Read mode : Secure
Utilize accurate stream : Yes
Defeat audio cache : Yes
Make use of C2 pointers : No

Read offset correction : 6
Overread into Lead-In and Lead-Out : No
Fill up missing offset samples with silence : Yes
Delete leading and trailing silent blocks : No
Null samples used in CRC calculations : Yes
Used interface : Native Win32 interface for Win NT & 2000

Used output format : User Defined Encoder
Selected bitrate : 896 kBit/s
Quality : High
Add ID3 tag : No
Command line compressor : F:flac.exe
Additional command line options : -8 -V -T "ARTIST=%artist%" -T "TITLE=%title%" -T "ALBUM=%albumtitle%" -T "DATE=%year%" -T "TRACKNUMBER=%tracknr%" -T "GENRE=%genre%" -T "COMMENT=Ripped by waddaw" -T "BAND=%albuminterpret%" -T "ALBUMARTIST=%albuminterpret%" -T "COMPOSER=%composer%" %haslyrics%--tag-from-file=LYRICS="%lyricsfile%"%haslyrics% -T "DISCNUMBER=%cdnumber%" -T "TOTALDISCS=%totalcds%" -T "TOTALTRACKS=%numtracks%" %hascover%--picture="%coverfile%"%hascover% %source% -o %dest%

TOC of the extracted CD

Track | Start | Length | Start sector | End sector
---------------------------------------------------------
1 | 0:00.00 | 4:18.58 | 0 | 19407
2 | 4:18.58 | 4:43.23 | 19408 | 40655
3 | 9:02.06 | 3:41.19 | 40656 | 57249
4 | 12:43.25 | 3:48.42 | 57250 | 74391
5 | 16:31.67 | 3:27.70 | 74392 | 89986
6 | 19:59.62 | 4:26.09 | 89987 | 109945
7 | 24:25.71 | 3:06.17 | 109946 | 123912
8 | 27:32.13 | 3:43.18 | 123913 | 140655
9 | 31:15.31 | 4:22.21 | 140656 | 160326

Range status and errors

Selected range

Filename K:Marty Balin - 1981 - Balin (American Beat Records ‎

Single download
Marty Balin - Hearts 4:19
Marty Balin - You Left Your Mark On Me 4:43
Marty Balin - Lydia! 3:41
Marty Balin - Atlanda Lady Something About Your Love
Marty Balin - Spotlight 3:28
Marty Balin - I Do Believe In You 4:26
Marty Balin - Elvis And Marilyn 3:06
Marty Balin - Tell Me More 3:43
Marty Balin - Music Is The Light 4:22

Category:Rock
Main catalog

Recommended:

VA - Glam Rock Anthology (2012) FLAC (image + .cue) A-Ha - Hunting High And Low (1985-2006) FLAC (image + .cue) Neil Young & Promise Of The Real - The Visitor (2017) FLAC (tracks + .cue)

About the Author:

music