Melt-Banana – Charlie (1998) FLAC music Lossless

Melt-Banana - Charlie (1998) FLAC
Artist: Melt-Banana | Album: Charlie | Released: 1998 | Genre: Rock

Tracklisting:

00. Neat Neat Neat
01. Introduction For Charlie (03:10)
02. Circle-Jack (Chase The Magic Words, Lego Lego) (02:39)
03. Spathic!! (02:29)
04. Tapir’s Flown Away (02:36)
05. F.D.C. For Short (01:23)
06. Taen Taen Taen (?) (00:45)
07. Cannot (02:50)
08. Area 877 (Phoenix Mix) (01:41)
09. Giggle On The Stretcher (00:49)
10. Section Eight (03:49)
11. Drug Store (01:56)
12. Stimulus For Revolving Virus (02:00)
13. Excess (01:43)
14. Chipped Zoo On The Wall, Wastes In The Sky……………. (07:48)

 Log Exact Audio Copy

Exact Audio Copy V1.3 from 2. September 2016

EAC extraction logfile from 13. November 2018, 3:25

Melt-Banana / Charlie

Used drive  : HL-DT-STDVD-RAM GH60N   Adapter: 1  ID: 0

Read mode               : Secure
Utilize accurate stream : Yes
Defeat audio cache      : Yes
Make use of C2 pointers : No

Read offset correction                      : 667
Overread into Lead-In and Lead-Out          : No
Fill up missing offset samples with silence : Yes
Delete leading and trailing silent blocks   : No
Null samples used in CRC calculations       : Yes
Used interface                              : Native Win32 interface for Win NT & 2000
Gap handling                                : Appended to previous track

Used output format              : User Defined Encoder
Selected bitrate                : 192 kBit/s
Quality                         : High
Add ID3 tag                     : No
Command line compressor         : C:Program Files (x86)Exact Audio CopyFlacflac.exe
Additional command line options : -8 -e -p -V -T "ARTIST=%artist%" -T "TITLE=%title%" -T "ALBUM=%albumtitle%" -T "DATE=%year%" -T "TRACKNUMBER=%tracknr%" -T "GENRE=%genre%" -T "PERFORMER=%albuminterpret%" -T "COMPOSER=%composer%" %haslyrics%--tag-from-file=LYRICS="%lyricsfile%"%haslyrics% -T "ALBUMARTIST=%albumartist%" -T "DISCNUMBER=%cdnumber%" -T "TOTALDISCS=%totalcds%" -T "TOTALTRACKS=%numtracks%" -T "COMMENT=%comment%" %source% -o %dest%


TOC of the extracted CD

    Track |   Start  |  Length  | Start sector | End sector 
   ---------------------------------------------------------
       1  |  3:09.70 |  3:10.40 |     14245    |    28534   
       2  |  6:20.35 |  2:39.45 |     28535    |    40504   
       3  |  9:00.05 |  2:29.20 |     40505    |    51699   
       4  | 11:29.25 |  2:36.25 |     51700    |    63424   
       5  | 14:05.50 |  1:23.22 |     63425    |    69671   
       6  | 15:28.72 |  0:45.00 |     69672    |    73046   
       7  | 16:13.72 |  2:50.40 |     73047    |    85836   
       8  | 19:04.37 |  1:41.35 |     85837    |    93446   
       9  | 20:45.72 |  0:49.38 |     93447    |    97159   
      10  | 21:35.35 |  3:49.22 |     97160    |   114356   
      11  | 25:24.57 |  1:56.65 |    114357    |   123121   
      12  | 27:21.47 |  2:00.25 |    123122    |   132146   
      13  | 29:21.72 |  1:43.23 |    132147    |   139894   
      14  | 31:05.20 |  7:49.00 |    139895    |   175069   


Track  1

    Filename F:lame3.99.5-64Melt-Banana-Charlie--FLAC1-Melt-Banana-Introduction_for_Charlie.wav

    Pre-gap length  0:03:11.70

    Peak level 100.0 %
    Extraction speed 3.0 X
    Track quality 99.9 %
    Test CRC 448BA1D7
    Copy CRC 448BA1D7
    Accurately ripped (confidence 4)  [876A6EAD]  (AR v2)
    Copy OK

Track  2

    Filename F:lame3.99.5-64Melt-Banana-Charlie--FLAC2-Melt-Banana-Circle-Jack_(Chase_the_Magic_Words,_Lego_Lego).wav

    Peak level 100.0 %
    Extraction speed 3.9 X
    Track quality 100.0 %
    Test CRC 562C1BED
    Copy CRC 562C1BED
    Accurately ripped (confidence 4)  [164C1966]  (AR v2)
    Copy OK

Track  3

    Filename F:lame3.99.5-64Melt-Banana-Charlie--FLAC3-Melt-Banana-Spathic!!.wav

    Peak level 100.0 %
    Extraction speed 4.0 X
    Track quality 100.0 %
    Test CRC 17BF6389
    Copy CRC 17BF6389
    Accurately ripped (confidence 4)  [07F2C1EC]  (AR v2)
    Copy OK

Track  4

    Filename F:lame3.99.5-64Melt-Banana-Charlie--FLAC4-Melt-Banana-Tapir's_Flown_Away.wav

    Peak level 100.0 %
    Extraction speed 3.2 X
    Track quality 99.9 %
    Test CRC 89643141
    Copy CRC 89643141
    Accurately ripped (confidence 4)  [F15C37AB]  (AR v2)
    Copy OK

Track  5

    Filename F:lame3.99.5-64Melt-Banana-Charlie--FLAC5-Melt-Banana-F.D.C._for_Short.wav

    Peak level 100.0 %
    Extraction speed 2.4 X
    Track quality 99.8 %
    Test CRC 253D4580
    Copy CRC 253D4580
    Accurately ripped (confidence 4)  [3DF4AA27]  (AR v2)
    Copy OK

Track  6

    Filename F:lame3.99.5-64Melt-Banana-Charlie--FLAC6-Melt-Banana-Taen_Taen_Taen_().wav

    Peak level 99.9 %
    Extraction speed 2.8 X
    Track quality 100.0 %
    Test CRC 284349F1
    Copy CRC 284349F1
    Accurately ripped (confidence 4)  [8BA4A73C]  (AR v2)
    Copy OK

Track  7

    Filename F:lame3.99.5-64Melt-Banana-Charlie--FLAC7-Melt-Banana-Cannot.wav

    Peak level 100.0 %
    Extraction speed 4.7 X
    Track quality 100.0 %
    Test CRC F1F791FC
    Copy CRC F1F791FC
    Accurately ripped (confidence 4)  [CFEFEB7D]  (AR v2)
    Copy OK

Track  8

    Filename F:lame3.99.5-64Melt-Banana-Charlie--FLAC8-Melt-Banana-Area_877_(Phoenix_Mix).wav

    Pre-gap length  0:00:04.57

    Peak level 100.0 %
    Extraction speed 4.2 X
    Track quality 100.0 %
    Test CRC AE8EABAB
    Copy CRC AE8EABAB
    Accurately ripped (confidence 4)  [B9B13FF2]  (AR v2)
    Copy OK

Track  9

    Filename F:lame3.99.5-64Melt-Banana-Charlie--FLAC9-Melt-Banana-Giggle_on_the_Stretcher.wav

    Peak level 100.0 %
    Extraction speed 3.4 X
    Track quality 100.0 %
    Test CRC C3FCEFD8
    Copy CRC C3FCEFD8
    Accurately ripped (confidence 4)  [ECFC058C]  (AR v2)
    Copy OK

Track 10

    Filename F:lame3.99.5-64Melt-Banana-Charlie--FLAC10-Melt-Banana-Section_Eight.wav

    Peak level 100.0 %
    Extraction speed 5.3 X
    Track quality 100.0 %
    Test CRC 3F9904E5
    Copy CRC 3F9904E5
    Accurately ripped (confidence 4)  [12F63308]  (AR v2)
    Copy OK

Track 11

    Filename F:lame3.99.5-64Melt-Banana-Charlie--FLAC11-Melt-Banana-Drug_Store.wav

    Pre-gap length  0:00:01.70

    Peak level 78.1 %
    Extraction speed 3.4 X
    Track quality 99.9 %
    Test CRC CAB48ECD
    Copy CRC CAB48ECD
    Accurately ripped (confidence 4)  [729E0BE9]  (AR v2)
    Copy OK

Track 12

    Filename F:lame3.99.5-64Melt-Banana-Charlie--FLAC12-Melt-Banana-Stimulus_for_Revolting_Virus.wav

    Peak level 100.0 %
    Extraction speed 5.0 X
    Track quality 100.0 %
    Test CRC 8B0B46AE
    Copy CRC 8B0B46AE
    Accurately ripped (confidence 4)  [42EBCBAC]  (AR v2)
    Copy OK

Track 13

    Filename F:lame3.99.5-64Melt-Banana-Charlie--FLAC13-Melt-Banana-Excess.wav

    Peak level 100.0 %
    Extraction speed 4.9 X
    Track quality 100.0 %
    Test CRC 23270D49
    Copy CRC 23270D49
    Accurately ripped (confidence 4)  [D51E2DE7]  (AR v2)
    Copy OK

Track 14

    Filename F:lame3.99.5-64Melt-Banana-Charlie--FLAC14-Melt-Banana-Chipped_Zoo_on_the_Wall_Wastes_in_the_Sky.wav

    Pre-gap length  0:00:04.03

    Peak level 100.0 %
    Extraction speed 6.6 X
    Track quality 100.0 %
    Test CRC 0D14221F
    Copy CRC 0D14221F
    Accurately ripped (confidence 4)  [06EC6942]  (AR v2)
    Copy OK


All tracks accurately ripped

No errors occurred

End of status report

==== Log checksum A70953396C3259EB2ACDD6011750CC012413B12066C1CD1548906317027DC7BE ====

Single download
Melt-Banana – Neat Neat Neat
Melt-Banana – Introduction For Charlie 03:10
Melt-Banana – Circle-Jack Chase The Magic Words, Lego Lego
Melt-Banana – Spathic!! 02:29
Melt-Banana – Tapir’s Flown Away 02:36
Melt-Banana – F.D.C. For Short 01:23
Melt-Banana – Taen Taen Taen ?
Melt-Banana – Cannot 02:50
Melt-Banana – Area 877 Phoenix Mix
Melt-Banana – Giggle On The Stretcher 00:49
Melt-Banana – Section Eight 03:49
Melt-Banana – Drug Store 01:56
Melt-Banana – Stimulus For Revolving Virus 02:00
Melt-Banana – Excess 01:43
Melt-Banana – Chipped Zoo On The Wall, Wastes In The Sky……………. 07:48
Melt-Banana – 5-64Melt-Banana-Charlie–FLAC2-Melt-Banana-Circle-Jack_Chase_the_Magic_Words,_Lego_Lego
Melt-Banana – 5-64Melt-Banana-Charlie–FLAC6-Melt-Banana-Taen_Taen_Taen_
Melt-Banana – 5-64Melt-Banana-Charlie–FLAC8-Melt-Banana-Area_877_Phoenix_Mix

Category:Rock
Main catalog

Recommended:

T.I.T.S. – T.I.T.S. (2014) FLAC VA, Bruce Springsteen – Born To Run – The Best Of The Boss – Uncut (2003) FLAC (tracks+.cue) Paul Revere & The Raiders – Greatest Hits (1967-2000) FLAC (image + .cue)

About the Author:

music