Mind Sky – Timewise (2005) FLAC (image + .cue) music Lossless

Mind Sky - Timewise (2005) FLAC (image + .cue)
Artist: Mind Sky | Album: Timewise | Released: 2005 | Label: Not On Label (Mind Sky Self-released) | Genre: Rock, Prog Rock | Country: US | Duration: 00:58:14

Tracklisting:

01. Fathom (11:04)
02. Timewise (6:02)
03. A Moment’s Peace (2:40)
04. Trial and Triumph (10:48)
05. Speak of Me as I Am (10:47)
06. Wayfarer Dance (3:09)
07. Harvesting Stars (13:45)

 Log Exact Audio Copy

Exact Audio Copy V1.3 from 2. September 2016

EAC extraction logfile from 24. February 2018, 18:54

Mind Sky / Timewise

Used drive  : ASUS    DRW-24B1LT   Adapter: 1  ID: 2

Read mode               : Secure
Utilize accurate stream : Yes
Defeat audio cache      : Yes
Make use of C2 pointers : No

Read offset correction                      : 6
Overread into Lead-In and Lead-Out          : No
Fill up missing offset samples with silence : Yes
Delete leading and trailing silent blocks   : No
Null samples used in CRC calculations       : Yes
Used interface                              : Native Win32 interface for Win NT & 2000

Used output format              : User Defined Encoder
Selected bitrate                : 1024 kBit/s
Quality                         : High
Add ID3 tag                     : No
Command line compressor         : C:Program Files (x86)FLAC_1.3.2win64flac.exe
Additional command line options : -6 -V -T "ARTIST=%artist%" -T "TITLE=%title%" -T "ALBUM=%albumtitle%" -T "DATE=%year%" -T "TRACKNUMBER=%tracknr%" -T "GENRE=%genre%" -T "COMMENT=ripped by wurensh for rutracker.org" %source% -o %dest%


TOC of the extracted CD

     Track |   Start  |  Length  | Start sector | End sector 
    ---------------------------------------------------------
        1  |  0:00.01 | 11:03.41 |         1    |    49766   
        2  | 11:03.42 |  6:02.25 |     49767    |    76941   
        3  | 17:05.67 |  2:39.60 |     76942    |    88926   
        4  | 19:45.52 | 10:47.52 |     88927    |   137503   
        5  | 30:33.29 | 10:47.11 |    137504    |   186039   
        6  | 41:20.40 |  3:08.68 |    186040    |   200207   
        7  | 44:29.33 | 13:44.55 |    200208    |   262062   


Range status and errors

Selected range

     Filename Y:EACwurenshMind SkyMind Sky - Timewise.wav

     Peak level 100.0 %
     Extraction speed 8.8 X
     Range quality 100.0 %
     Test CRC 7A110E6D
     Copy CRC 7A110E6D
     Copy OK

No errors occurred

 
AccurateRip summary
 
Track  1  accurately ripped (confidence 4)  [5ED917BA]  (AR v2)
Track  2  accurately ripped (confidence 4)  [C4600747]  (AR v2)
Track  3  accurately ripped (confidence 4)  [63BDD549]  (AR v2)
Track  4  accurately ripped (confidence 4)  [DFE48142]  (AR v2)
Track  5  accurately ripped (confidence 4)  [9F70B30D]  (AR v2)
Track  6  accurately ripped (confidence 4)  [2BB729B4]  (AR v2)
Track  7  accurately ripped (confidence 4)  [2CBDE7AE]  (AR v2)
 
All tracks accurately ripped

End of status report

==== Log checksum 2918D5080AB85479181D6A2F484A453C9D64A4433446434E583E5610483CE1BC ====

Single download
Mind Sky – Fathom 11:04
Mind Sky – Timewise 6:02
Mind Sky – A Moment’s Peace 2:40
Mind Sky – Trial and Triumph 10:48
Mind Sky – Speak of Me as I Am 10:47
Mind Sky – Wayfarer Dance 3:09
Mind Sky – Harvesting Stars 13:45

Category:Rock
Main catalog

Recommended:

Iggy Pop – TV Eye: 1977 (2017) (24bit Hi-Res) FLAC Foreigner – The Very Best…And Beyond (1992) FLAC (tracks + .cue) Fireflight (2006 – 2012) FLAC (tracks + .cue)

About the Author:

music