Painter – Painter (1973, 2009) FLAC (image + .cue) music Lossless

Painter - Painter (1973, 2009) FLAC (image + .cue)
Artist: Painter | Album: Painter | Released: 1973, 2009 | Label: Wounded Bird Records | Catalog #: WOU 5071 | Genre: Rock, Classic Rock | Country: Canada | Duration: 00:38:33

Tracklisting:

01. West Coast Woman (2:50)
02. Tell Me Why (2:06)
03. Song For Sunshine (3:05)
04. Goin Home To Rock n Roll (3:02)
05. Space Truck (2:39)
06. Kites And Gliders (3:47)
07. Oh! You (2:26)
08. Slave Driver (3:05)
09. For You (4:00)
10. Crazy Feeling (2:45)
11. Goin Down The Road (8:48)

 Log Exact Audio Copy

Exact Audio Copy V1.3 from 2. September 2016

EAC extraction logfile from 23. January 2018, 18:12

Painter / Painter

Used drive : TSSTcorpCD/DVDW SH-S182D Adapter: 1 ID: 0

Read mode : Secure
Utilize accurate stream : Yes
Defeat audio cache : Yes
Make use of C2 pointers : No

Read offset correction : 6
Overread into Lead-In and Lead-Out : No
Fill up missing offset samples with silence : Yes
Delete leading and trailing silent blocks : No
Null samples used in CRC calculations : Yes
Used interface : Native Win32 interface for Win NT & 2000

Used output format : User Defined Encoder
Selected bitrate : 896 kBit/s
Quality : High
Add ID3 tag : No
Command line compressor : F:flac.exe
Additional command line options : -8 -V -T "ARTIST=%artist%" -T "TITLE=%title%" -T "ALBUM=%albumtitle%" -T "DATE=%year%" -T "TRACKNUMBER=%tracknr%" -T "GENRE=%genre%" -T "COMMENT=Ripped by waddaw" -T "BAND=%albuminterpret%" -T "ALBUMARTIST=%albuminterpret%" -T "COMPOSER=%composer%" %haslyrics%--tag-from-file=LYRICS="%lyricsfile%"%haslyrics% -T "DISCNUMBER=%cdnumber%" -T "TOTALDISCS=%totalcds%" -T "TOTALTRACKS=%numtracks%" %hascover%--picture="%coverfile%"%hascover% %source% -o %dest%

TOC of the extracted CD

Track | Start | Length | Start sector | End sector
---------------------------------------------------------
1 | 0:00.00 | 2:50.27 | 0 | 12776
2 | 2:50.27 | 2:05.63 | 12777 | 22214
3 | 4:56.15 | 3:05.12 | 22215 | 36101
4 | 8:01.27 | 3:02.08 | 36102 | 49759
5 | 11:03.35 | 2:39.25 | 49760 | 61709
6 | 13:42.60 | 3:47.23 | 61710 | 78757
7 | 17:30.08 | 2:25.69 | 78758 | 89701
8 | 19:56.02 | 3:04.46 | 89702 | 103547
9 | 23:00.48 | 3:59.52 | 103548 | 121524
10 | 27:00.25 | 2:45.32 | 121525 | 133931
11 | 29:45.57 | 8:47.41 | 133932 | 173497

Range status and errors

Selected range

Filename K:Painter - 1973 - Painter (Wounded Bird Records ‎

Single download
Painter - West Coast Woman 2:50
Painter - Tell Me Why 2:06
Painter - Song For Sunshine 3:05
Painter - Goin Home To Rock n Roll 3:02
Painter - Space Truck 2:39
Painter - Kites And Gliders 3:47
Painter - Oh! You 2:26
Painter - Slave Driver 3:05
Painter - For You 4:00
Painter - Crazy Feeling 2:45
Painter - Goin Down The Road 8:48
Painter - January 2018, 18:12
Painter - 00 | 2:50.27 | 0 | 12776
Painter - 27 | 2:05.63 | 12777 | 22214
Painter - 15 | 3:05.12 | 22215 | 36101
Painter - 27 | 3:02.08 | 36102 | 49759
Painter - 35 | 2:39.25 | 49760 | 61709
Painter - 60 | 3:47.23 | 61710 | 78757
Painter - 08 | 2:25.69 | 78758 | 89701
Painter - 02 | 3:04.46 | 89702 | 103547
Painter - 48 | 3:59.52 | 103548 | 121524
Painter - 25 | 2:45.32 | 121525 | 133931
Painter - 57 | 8:47.41 | 133932 | 173497

Category:Rock
Main catalog

Recommended:

Eagles - Eagles Live (1980) (Vinyl) FLAC (tracks) Errors - Lease Of Life (2015) FLAC (tracks + .cue) Billy Burnette - Memphis in Manhattan (2006) FLAC (tracks)

About the Author:

music