Paul Rodgers – Now (1997) FLAC (image + .cue) music Lossless

Paul Rodgers - Now (1997) FLAC (image + .cue)
Artist: Paul Rodgers | Album: Now | Released: 1997 | Label: SPV Recordings | Catalog #: SPV 085-44662 | Genre: Blues Rock, Rock | Country: UK | Duration: 00:55:06

Tracklisting:

01. Soul Of Love (4:52)
02. Overloaded (3:17)
03. Heart Of Fire (4:14)
04. Saving Grace (4:51)
05. All I Really Want Is You (5:34)
06. Chasing Shadows (4:43)
07. Love Is All I Need (5:59)
08. Nights Like This (5:21)
09. Shadows Of The Sun (5:24)
10. I Lost It All (5:54)
11. Holding Back The Storm (4:57)

 Log Exact Audio Copy

Exact Audio Copy V1.3 from 2. September 2016

EAC extraction logfile from 12. February 2018, 20:08

Paul Rodgers / Now

Used drive  : Optiarc DVD RW AD-7283S   Adapter: 1  ID: 0

Read mode               : Secure
Utilize accurate stream : Yes
Defeat audio cache      : Yes
Make use of C2 pointers : No

Read offset correction                      : 48
Overread into Lead-In and Lead-Out          : No
Fill up missing offset samples with silence : Yes
Delete leading and trailing silent blocks   : No
Null samples used in CRC calculations       : Yes
Used interface                              : Native Win32 interface for Win NT & 2000

Used output format              : User Defined Encoder
Selected bitrate                : 128 kBit/s
Quality                         : High
Add ID3 tag                     : No
Command line compressor         : C:Program Files (x86)Exact Audio CopyFlacflac.exe
Additional command line options : -8 -e -p -V -T "ARTIST=%artist%" -T "TITLE=%title%" -T "ALBUM=%albumtitle%" -T "DATE=%year%" -T "TRACKNUMBER=%tracknr%" -T "GENRE=%genre%" -T "PERFORMER=%albuminterpret%" -T "COMPOSER=%composer%" %haslyrics%--tag-from-file=LYRICS="%lyricsfile%"%haslyrics% -T "ALBUMARTIST=%albumartist%" -T "DISCNUMBER=%cdnumber%" -T "TOTALDISCS=%totalcds%" -T "TOTALTRACKS=%numtracks%" -T "COMMENT=%comment%" %source% -o %dest%


TOC of the extracted CD

     Track |   Start  |  Length  | Start sector | End sector 
    ---------------------------------------------------------
        1  |  0:00.00 |  4:52.32 |         0    |    21931   
        2  |  4:52.32 |  3:16.50 |     21932    |    36681   
        3  |  8:09.07 |  4:13.60 |     36682    |    55716   
        4  | 12:22.67 |  4:51.35 |     55717    |    77576   
        5  | 17:14.27 |  5:33.43 |     77577    |   102594   
        6  | 22:47.70 |  4:43.22 |    102595    |   123841   
        7  | 27:31.17 |  5:58.73 |    123842    |   150764   
        8  | 33:30.15 |  5:20.52 |    150765    |   174816   
        9  | 38:50.67 |  5:24.20 |    174817    |   199136   
       10  | 44:15.12 |  5:54.10 |    199137    |   225696   
       11  | 50:09.22 |  4:56.48 |    225697    |   247944   


Range status and errors

Selected range

     Filename F:alexbras1997 Paul Rodgers - Now (Germany SPV 085-44662)Paul Rodgers - Now.wav

     Peak level 98.3 %
     Extraction speed 4.1 X
     Range quality 100.0 %
     Test CRC 71DDBB29
     Copy CRC 71DDBB29
     Copy OK

No errors occurred

 
AccurateRip summary
 
Track  1  accurately ripped (confidence 80)  [2D61A3B5]  (AR v2)
Track  2  accurately ripped (confidence 80)  [A7724B57]  (AR v2)
Track  3  accurately ripped (confidence 80)  [C97C65BD]  (AR v2)
Track  4  accurately ripped (confidence 80)  [7A4575FF]  (AR v2)
Track  5  accurately ripped (confidence 78)  [C36903B4]  (AR v2)
Track  6  accurately ripped (confidence 79)  [7069AB74]  (AR v2)
Track  7  accurately ripped (confidence 77)  [91D0D1EB]  (AR v2)
Track  8  accurately ripped (confidence 78)  [78E926A6]  (AR v2)
Track  9  accurately ripped (confidence 78)  [F82E6C12]  (AR v2)
Track 10  accurately ripped (confidence 78)  [DE747368]  (AR v2)
Track 11  accurately ripped (confidence 79)  [7D6C3E4A]  (AR v2)
 
All tracks accurately ripped

End of status report

==== Log checksum BD7E8EFF655FF31B1FFBB87BE9095682DBA069C8E9F2EF3C7D844180A53F5A88 ====

Single download
Paul Rodgers – Soul Of Love 4:52
Paul Rodgers – Overloaded 3:17
Paul Rodgers – Heart Of Fire 4:14
Paul Rodgers – Saving Grace 4:51
Paul Rodgers – All I Really Want Is You 5:34
Paul Rodgers – Chasing Shadows 4:43
Paul Rodgers – Love Is All I Need 5:59
Paul Rodgers – Nights Like This 5:21
Paul Rodgers – Shadows Of The Sun 5:24
Paul Rodgers – I Lost It All 5:54
Paul Rodgers – Holding Back The Storm 4:57

Category:Rock
Main catalog

Recommended:

Katatonia – Last Fair Day Gone Night (2014) FLAC Richie Kotzen – Into The Black (2006) WV (image+.cue) Roxette – Tourism (1992) (Vinyl) WV (image + .cue)

About the Author:

music