Pink Floyd – Rhapsody In Pink (The Psychedelic Years) (1990) FLAC (image + .cue) music Lossless

Pink Floyd - Rhapsody In Pink (The Psychedelic Years) (1990) FLAC (image + .cue)
Artist: Pink Floyd | Album: Rhapsody In Pink | Released: 1990 | Label: Living Legend Records | Catalog #: LLRCD 044 | Genre: Rock, Progressive Rock | Country: UK | Duration: 01:11:24

Tracklisting:

01. Embryo (10:05)
02. Julia Dream (2:29)
03. Careful With That Axe (7:19)
04. One Of These Days (6:59)
05. If (4:29)
06. Atom Heart Mother (14:35)
07. Echoes (25:28)

 Log Exact Audio Copy

Exact Audio Copy V0.99 prebeta 5 from 4. May 2009

EAC extraction logfile from 17. April 2010, 13:09

Pink Floyd / Rhapsody In Pink, The Psychedelic Years

Used drive  : HL-DT-STDVDRAM GH20NS15   Adapter: 2  ID: 0

Read mode               : Secure
Utilize accurate stream : Yes
Defeat audio cache      : Yes
Make use of C2 pointers : No

Read offset correction                      : 667
Overread into Lead-In and Lead-Out          : No
Fill up missing offset samples with silence : Yes
Delete leading and trailing silent blocks   : No
Null samples used in CRC calculations       : Yes
Used interface                              : Installed external ASPI interface

Used output format              : User Defined Encoder
Selected bitrate                : 1024 kBit/s
Quality                         : High
Add ID3 tag                     : No
Command line compressor         : C:Program Files (x86)Exact Audio CopyFLACFLAC.EXE
Additional command line options : -8 -A tukey(0.25) -A gauss(0.1875) -b 4096 -V -T "artist=%a" -T "title=%t" -T "album=%g" -T "date=%y" -T "tracknumber=%n" -T "genre=%m" %s --sector-align


TOC of the extracted CD

     Track |   Start  |  Length  | Start sector | End sector 
    ---------------------------------------------------------
        1  |  0:00.00 | 10:05.07 |         0    |    45381   
        2  | 10:05.07 |  2:28.68 |     45382    |    56549   
        3  | 12:34.00 |  7:18.72 |     56550    |    89471   
        4  | 19:52.72 |  6:58.58 |     89472    |   120879   
        5  | 26:51.55 |  4:29.22 |    120880    |   141076   
        6  | 31:21.02 | 14:34.73 |    141077    |   206699   
        7  | 45:56.00 | 25:27.70 |    206700    |   321294   


Range status and errors

Selected range

     Filename D:Pink FloydPink FloydPink Floyd - Rhapsody In Pink, The Psychedelic YearsPink Floyd - Rhapsody In Pink, The Psychedelic Years.wav

     Peak level 99.9 %
     Range quality 99.9 %
     Copy CRC C660567D
     Copy OK

No errors occurred

 
AccurateRip summary
 
Track  1  not present in database
Track  2  not present in database
Track  3  not present in database
Track  4  not present in database
Track  5  not present in database
Track  6  not present in database
Track  7  not present in database
 
None of the tracks are present in the AccurateRip database

End of status report

Single download
Pink Floyd – Embryo 10:05
Pink Floyd – Julia Dream 2:29
Pink Floyd – Careful With That Axe 7:19
Pink Floyd – One Of These Days 6:59
Pink Floyd – If 4:29
Pink Floyd – Atom Heart Mother 14:35
Pink Floyd – Echoes 25:28

Category:Rock
Main catalog

Recommended:

Pink Floyd – A Collection Of Great Dance Songs (1981, 2017) [Vinyl] FLAC (tracks) Deep Purple – Live At Montreux 1996 (2006) FLAC (image + .cue) Peter Gabriel – Hit (2003) 2CD FLAC (tracks + .cue)

About the Author:

music