Tamarisk – Breaking the Chains (2018) FLAC (tracks + .cue) music Lossless

Tamarisk - Breaking the Chains (2018) FLAC (tracks + .cue)
Artist: Tamarisk | Album: Breaking the Chains | Released: 2018 | Label: Cult Metal Classics | Catalog #: CULTMETALTMRSKCD | Genre: Rock, Neo-Prog

Tracklisting:

01. An Alien Heat (5:21)
02. Royal Flush (4:08)
03. M.O.J.O. (The Death of an American Prayer) (6:42)
04. No Room at the Top (6:50)
05. Ascension (6:54)
06. A Christmas Carol (7:12)
07. Breaking the Chains (7:50)
08. Taxis for Janet (3:58)
09. Total Coverage (9:45)
10. Bandana in Chains (4:25)
11. It Was Never There (6:29)

 Log Exact Audio Copy

Exact Audio Copy V1.3 from 2. September 2016

EAC extraction logfile from 30. March 2018, 12:38

Tamarisk / Breaking the Chains

Used drive  : ASUS    DRW-24B1ST   Adapter: 1  ID: 0

Read mode               : Secure
Utilize accurate stream : Yes
Defeat audio cache      : Yes
Make use of C2 pointers : No

Read offset correction                      : 6
Overread into Lead-In and Lead-Out          : No
Fill up missing offset samples with silence : Yes
Delete leading and trailing silent blocks   : No
Null samples used in CRC calculations       : Yes
Used interface                              : Native Win32 interface for Win NT & 2000
Gap handling                                : Appended to previous track

Used output format              : User Defined Encoder
Selected bitrate                : 1024 kBit/s
Quality                         : High
Add ID3 tag                     : No
Command line compressor         : C:Program Files (x86)Exact Audio CopyFlacflac.exe
Additional command line options : -8 -e -p -V -T "ARTIST=%artist%" -T "TITLE=%title%" -T "ALBUM=%albumtitle%" -T "DATE=%year%" -T "TRACKNUMBER=%tracknr%" -T "GENRE=%genre%" -T "PERFORMER=%albuminterpret%" -T "COMPOSER=%composer%" %haslyrics%--tag-from-file=LYRICS="%lyricsfile%"%haslyrics% -T "ALBUMARTIST=%albumartist%" -T "DISCNUMBER=%cdnumber%" -T "TOTALDISCS=%totalcds%" -T "TOTALTRACKS=%numtracks%" -T "COMMENT=%comment%" %source% -o %dest%

TOC of the extracted CD

     Track |   Start  |  Length  | Start sector | End sector
    ---------------------------------------------------------
        1  |  0:00.00 |  5:21.10 |         0    |    24084
        2  |  5:21.10 |  4:07.42 |     24085    |    42651
        3  |  9:28.52 |  6:41.56 |     42652    |    72782
        4  | 16:10.33 |  6:49.57 |     72783    |   103514
        5  | 23:00.15 |  6:54.22 |    103515    |   134586
        6  | 29:54.37 |  7:12.23 |    134587    |   167009
        7  | 37:06.60 |  7:49.66 |    167010    |   202250
        8  | 44:56.51 |  3:58.34 |    202251    |   220134
        9  | 48:55.10 |  9:44.67 |    220135    |   264001
       10  | 58:40.02 |  4:24.47 |    264002    |   283848
       11  | 63:04.49 |  6:29.26 |    283849    |   313049

Track  1

     Filename F:MusicMy Rips1 - An Alien Heat.wav

     Pre-gap length  0:00:02.00

     Peak level 99.3 %
     Extraction speed 3.6 X
     Track quality 100.0 %
     Test CRC C2F13089
     Copy CRC C2F13089
     Track not present in AccurateRip database
     Copy OK

Track  2

     Filename F:MusicMy Rips2 - Royal Flush.wav

     Pre-gap length  0:00:02.00

     Peak level 97.9 %
     Extraction speed 3.9 X
     Track quality 100.0 %
     Test CRC 17EED885
     Copy CRC 17EED885
     Track not present in AccurateRip database
     Copy OK

Track  3

     Filename F:MusicMy Rips3 - M.O.J.O. (The Death of an American Prayer).wav

     Pre-gap length  0:00:02.00

     Peak level 99.1 %
     Extraction speed 4.5 X
     Track quality 100.0 %
     Test CRC 752ECD8D
     Copy CRC 752ECD8D
     Track not present in AccurateRip database
     Copy OK

Track  4

     Filename F:MusicMy Rips4 - No Room at the Top.wav

     Pre-gap length  0:00:02.00

     Peak level 98.0 %
     Extraction speed 5.0 X
     Track quality 100.0 %
     Test CRC E4F47F03
     Copy CRC E4F47F03
     Track not present in AccurateRip database
     Copy OK

Track  5

     Filename F:MusicMy Rips5 - Ascension.wav

     Pre-gap length  0:00:02.00

     Peak level 99.4 %
     Extraction speed 4.8 X
     Track quality 99.9 %
     Test CRC 0A751266
     Copy CRC 0A751266
     Track not present in AccurateRip database
     Copy OK

Track  6

     Filename F:MusicMy Rips6 - A Christmas Carol.wav

     Pre-gap length  0:00:02.00

     Peak level 99.5 %
     Extraction speed 5.9 X
     Track quality 100.0 %
     Test CRC D01A74EE
     Copy CRC D01A74EE
     Track not present in AccurateRip database
     Copy OK

Track  7

     Filename F:MusicMy Rips7 - Breaking the Chains.wav

     Pre-gap length  0:00:02.00

     Peak level 99.3 %
     Extraction speed 6.4 X
     Track quality 100.0 %
     Test CRC 2E134F7A
     Copy CRC 2E134F7A
     Track not present in AccurateRip database
     Copy OK

Track  8

     Filename F:MusicMy Rips8 - Taxis for Janet.wav

     Pre-gap length  0:00:02.00

     Peak level 99.6 %
     Extraction speed 6.3 X
     Track quality 100.0 %
     Test CRC 563CB698
     Copy CRC 563CB698
     Track not present in AccurateRip database
     Copy OK

Track  9

     Filename F:MusicMy Rips9 - Total Coverage.wav

     Peak level 99.1 %
     Extraction speed 7.2 X
     Track quality 100.0 %
     Test CRC 707A2C6E
     Copy CRC 707A2C6E
     Track not present in AccurateRip database
     Copy OK

Track 10

     Filename F:MusicMy Rips10 - Bandana in Chains.wav

     Pre-gap length  0:00:02.00

     Peak level 99.6 %
     Extraction speed 5.6 X
     Track quality 99.9 %
     Test CRC 503B9727
     Copy CRC 503B9727
     Track not present in AccurateRip database
     Copy OK

Track 11

     Filename F:MusicMy Rips11 - It Was Never There.wav

     Pre-gap length  0:00:02.00

     Peak level 99.6 %
     Extraction speed 7.5 X
     Track quality 100.0 %
     Test CRC 9F90E917
     Copy CRC 9F90E917
     Track not present in AccurateRip database
     Copy OK

None of the tracks are present in the AccurateRip database

No errors occurred

End of status report

---- CUETools DB Plugin V2.1.6

[CTDB TOCID: _dhXXkWDKWxIr2EiR91H1YI5ots-] disk not present in database
Submit result: _dhXXkWDKWxIr2EiR91H1YI5ots- has been uploaded

==== Log checksum D594F94722CD415D0E54E4E637BAA1CE32FDBD5A6F4D9C42479AAB5E870B148B ====

Single download
Tamarisk – An Alien Heat 5:21
Tamarisk – Royal Flush 4:08
Tamarisk – M.O.J.O. The Death of an American Prayer
Tamarisk – No Room at the Top 6:50
Tamarisk – Ascension 6:54
Tamarisk – A Christmas Carol 7:12
Tamarisk – Breaking the Chains 7:50
Tamarisk – Taxis for Janet 3:58
Tamarisk – Total Coverage 9:45
Tamarisk – Bandana in Chains 4:25
Tamarisk – It Was Never There 6:29

Category:Rock
Main catalog

Recommended:

The Alan Parsons Project – The Definitive Collection (1997) WV (image + .cue) Lou Reed – Original Album Classics (Box Set) (1974 -1980-2011) FLAC (image + .cue) Morningstar – Morningstar (1978, 2018) (Remastered) FLAC

About the Author:

music