Taurus – Illusions Of A Night (1981, 1989) FLAC (tracks + .cue) music Lossless

Taurus - Illusions Of A Night (1981, 1989) FLAC (tracks + .cue)
Artist: Taurus | Album: Illusions Of A Night | Released: ‎1981, 1989 | Label: Multi Records | Catalog #: CD MTI 89001 | Genre: Rock, Symphonic Rock | Country: Netherlands | Duration: 00:44:40

Tracklisting:

01. Back On The Street (3:51)
02. The Gurus (4:13)
03. Mountaineer (4:42)
04. Farmers Battle (2:37)
05. Illusions Of A Night (4:32)
06. Kaboom (6:08)
07. My Will (6:01)
08. Barbara (1:27)
09. Nickname (3:31)
10. Same Old Story (6:14)
11. Sutton (1:24)

 Log Exact Audio Copy

Exact Audio Copy V1.0 beta 3 from 29. August 2011

EAC extraction logfile from 25. December 2011, 21:21

Taurus / Illusions Of A Night

Used drive  : ATAPI   iHAS324   Y   Adapter: 4  ID: 0

Read mode               : Secure
Utilize accurate stream : Yes
Defeat audio cache      : Yes
Make use of C2 pointers : No

Read offset correction                      : 48
Overread into Lead-In and Lead-Out          : No
Fill up missing offset samples with silence : Yes
Delete leading and trailing silent blocks   : No
Null samples used in CRC calculations       : Yes
Used interface                              : Native Win32 interface for Win NT & 2000
Gap handling                                : Appended to previous track

Used output format              : User Defined Encoder
Selected bitrate                : 896 kBit/s
Quality                         : High
Add ID3 tag                     : No
Command line compressor         : C:Program FilesExact Audio Copyflac.exe
Additional command line options : -8 -V -T "ARTIST=%artist%" -T "TITLE=%title%" -T "ALBUM=%albumtitle%" -T "DATE=%year%" -T "TRACKNUMBER=%tracknr%" -T "GENRE=%genre%" -T "PERFORMER=%albuminterpret%" -T "COMPOSER=%composer%" %haslyrics%--tag-from-file=LYRICS="%lyricsfile%"%haslyrics% -T "ALBUMARTIST=%albumartist%" -T "DISCNUMBER=%cdnumber%" -T "TOTALDISCS=%totalcds%" -T "TOTALTRACKS=%numtracks%" -T "COMMENT=%comment%" %source% -o %dest%


TOC of the extracted CD

     Track |   Start  |  Length  | Start sector | End sector 
    ---------------------------------------------------------
        1  |  0:00.00 |  3:50.60 |         0    |    17309   
        2  |  3:50.60 |  4:13.00 |     17310    |    36284   
        3  |  8:03.60 |  4:41.58 |     36285    |    57417   
        4  | 12:45.43 |  2:37.00 |     57418    |    69192   
        5  | 15:22.43 |  4:32.30 |     69193    |    89622   
        6  | 19:54.73 |  6:07.50 |     89623    |   117197   
        7  | 26:02.48 |  6:00.55 |    117198    |   144252   
        8  | 32:03.28 |  1:27.37 |    144253    |   150814   
        9  | 33:30.65 |  3:31.20 |    150815    |   166659   
       10  | 37:02.10 |  6:14.08 |    166660    |   194717   
       11  | 43:16.18 |  1:24.07 |    194718    |   201024   


Track  1

     Filename C:EAC1 - Back On The Street.wav

     Pre-gap length  0:00:02.00

     Peak level 88.2 %
     Extraction speed 2.3 X
     Track quality 100.0 %
     Test CRC E1C2BA02
     Copy CRC E1C2BA02
     Accurately ripped (confidence 2)  [5FC965CE]  (AR v1)
     Copy OK

Track  2

     Filename C:EAC2 - The Gurus.wav

     Pre-gap length  0:00:01.00

     Peak level 57.1 %
     Extraction speed 2.5 X
     Track quality 100.0 %
     Test CRC DB6F3460
     Copy CRC DB6F3460
     Accurately ripped (confidence 2)  [E3D08D94]  (AR v1)
     Copy OK

Track  3

     Filename C:EAC3 - Mountaineer.wav

     Pre-gap length  0:00:04.00

     Peak level 68.9 %
     Extraction speed 2.8 X
     Track quality 100.0 %
     Test CRC 2DE47629
     Copy CRC 2DE47629
     Accurately ripped (confidence 2)  [263B58A3]  (AR v1)
     Copy OK

Track  4

     Filename C:EAC4 - Farmers Battle.wav

     Pre-gap length  0:00:06.38

     Peak level 59.4 %
     Extraction speed 2.3 X
     Track quality 99.9 %
     Test CRC AD0D58EB
     Copy CRC AD0D58EB
     Accurately ripped (confidence 2)  [DA68C2B0]  (AR v1)
     Copy OK

Track  5

     Filename C:EAC5 - Illusions Of A Night.wav

     Pre-gap length  0:00:04.35

     Peak level 50.8 %
     Extraction speed 3.3 X
     Track quality 100.0 %
     Test CRC A8F85335
     Copy CRC A8F85335
     Accurately ripped (confidence 2)  [46155BB7]  (AR v1)
     Copy OK

Track  6

     Filename C:EAC6 - Kaboom.wav

     Pre-gap length  0:00:01.73

     Peak level 76.7 %
     Extraction speed 3.6 X
     Track quality 100.0 %
     Test CRC 6103FDBC
     Copy CRC 6103FDBC
     Accurately ripped (confidence 2)  [ED3EECF8]  (AR v1)
     Copy OK

Track  7

     Filename C:EAC7 - My Will.wav

     Pre-gap length  0:00:03.73

     Peak level 58.2 %
     Extraction speed 3.8 X
     Track quality 100.0 %
     Test CRC 4F5872EB
     Copy CRC 4F5872EB
     Accurately ripped (confidence 2)  [1FD8240E]  (AR v1)
     Copy OK

Track  8

     Filename C:EAC8 - Barbara.wav

     Pre-gap length  0:00:03.40

     Peak level 49.5 %
     Extraction speed 3.0 X
     Track quality 100.0 %
     Test CRC FC3BDFD5
     Copy CRC FC3BDFD5
     Accurately ripped (confidence 2)  [11D96938]  (AR v1)
     Copy OK

Track  9

     Filename C:EAC9 - Nickname.wav

     Pre-gap length  0:00:05.02

     Peak level 92.4 %
     Extraction speed 3.9 X
     Track quality 100.0 %
     Test CRC EC53F7E6
     Copy CRC EC53F7E6
     Accurately ripped (confidence 2)  [FB993C1A]  (AR v1)
     Copy OK

Track 10

     Filename C:EAC10 - Same Old Story.wav

     Pre-gap length  0:00:05.07

     Peak level 71.8 %
     Extraction speed 4.3 X
     Track quality 100.0 %
     Test CRC 04D3CDFA
     Copy CRC 04D3CDFA
     Accurately ripped (confidence 2)  [AD8DE08B]  (AR v1)
     Copy OK

Track 11

     Filename C:EAC11 - Sutton.wav

     Pre-gap length  0:00:06.38

     Peak level 35.5 %
     Extraction speed 3.4 X
     Track quality 100.0 %
     Test CRC F92CF812
     Copy CRC F92CF812
     Accurately ripped (confidence 2)  [9328AAE0]  (AR v1)
     Copy OK


All tracks accurately ripped

No errors occurred

End of status report

==== Log checksum BBFAC89A20EBDDBDC801E4D078181F299709954F15764D75502EF3DCCEC6A1F0 ====

Single download
Taurus – Back On The Street 3:51
Taurus – The Gurus 4:13
Taurus – Mountaineer 4:42
Taurus – Farmers Battle 2:37
Taurus – Illusions Of A Night 4:32
Taurus – Kaboom 6:08
Taurus – My Will 6:01
Taurus – Barbara 1:27
Taurus – Nickname 3:31
Taurus – Same Old Story 6:14
Taurus – Sutton 1:24

Category:Rock
Main catalog

Recommended:

Felix Pappalardi – Don’t Worry, Ma (1979, 2004) FLAC (image + .cue) Unknown Mortal Orchestra – Sex & Food (2018) FLAC (tracks + .cue) Barry Goudreau’s Engine Room – Full Steam Ahead (2017) FLAC (tracks +.cue)

About the Author:

music