Taurus – Meadow (See You Again) (2009) FLAC (tracks + .cue) music Lossless

Taurus - Meadow (See You Again) (2009) FLAC (tracks + .cue)
Artist: Taurus | Album: Meadow (See You Again) | Released: 2009 | Label: Crystal Ball Music | Catalog #: CB 0801 | Genre: Rock, Symphonic Rock | Country: Netherlands | Duration: 00:48:16

Tracklisting:

01. Meadow (see you again) (3:43)
02. Undiscovered (3:10)
03. So blind ’81 (3:22)
04. Tonight (4:34)
05. Man in the mirror (4:19)
06. So blind ’82 (3:05)
07. Escape (3:43)
08. Waiting for you (4:04)
09. Foolish constructions (2:43)
10. Just rewind (4:39)
11. Show it to me (5:55)
12. Aquarius (5:00)

 Log Exact Audio Copy

Exact Audio Copy V1.0 beta 3 from 29. August 2011

EAC extraction logfile from 15. June 2012, 20:09

Taurus / Meadow

Used drive  : ATAPI   iHAS324   Y   Adapter: 4  ID: 0

Read mode               : Secure
Utilize accurate stream : Yes
Defeat audio cache      : Yes
Make use of C2 pointers : No

Read offset correction                      : 48
Overread into Lead-In and Lead-Out          : No
Fill up missing offset samples with silence : Yes
Delete leading and trailing silent blocks   : No
Null samples used in CRC calculations       : Yes
Used interface                              : Native Win32 interface for Win NT & 2000
Gap handling                                : Appended to previous track

Used output format              : User Defined Encoder
Selected bitrate                : 896 kBit/s
Quality                         : High
Add ID3 tag                     : No
Command line compressor         : C:Program FilesExact Audio Copyflac.exe
Additional command line options : -8 -V -T "ARTIST=%artist%" -T "TITLE=%title%" -T "ALBUM=%albumtitle%" -T "DATE=%year%" -T "TRACKNUMBER=%tracknr%" -T "GENRE=%genre%" -T "PERFORMER=%albuminterpret%" -T "COMPOSER=%composer%" %haslyrics%--tag-from-file=LYRICS="%lyricsfile%"%haslyrics% -T "ALBUMARTIST=%albumartist%" -T "DISCNUMBER=%cdnumber%" -T "TOTALDISCS=%totalcds%" -T "TOTALTRACKS=%numtracks%" -T "COMMENT=%comment%" %source% -o %dest%


TOC of the extracted CD

     Track |   Start  |  Length  | Start sector | End sector 
    ---------------------------------------------------------
        1  |  0:00.00 |  3:43.12 |         0    |    16736   
        2  |  3:43.12 |  3:09.72 |     16737    |    30983   
        3  |  6:53.09 |  3:21.56 |     30984    |    46114   
        4  | 10:14.65 |  4:33.62 |     46115    |    66651   
        5  | 14:48.52 |  4:19.05 |     66652    |    86081   
        6  | 19:07.57 |  3:04.40 |     86082    |    99921   
        7  | 22:12.22 |  3:42.65 |     99922    |   116636   
        8  | 25:55.12 |  4:04.19 |    116637    |   134955   
        9  | 29:59.31 |  2:43.18 |    134956    |   147198   
       10  | 32:42.49 |  4:39.00 |    147199    |   168123   
       11  | 37:21.49 |  5:54.49 |    168124    |   194722   
       12  | 43:16.23 |  4:59.43 |    194723    |   217190   


Track  1

     Filename C:EAC1 - Meadow (see you again).wav

     Pre-gap length  0:00:02.00

     Peak level 94.9 %
     Extraction speed 2.5 X
     Track quality 100.0 %
     Test CRC ADDAC9CD
     Copy CRC ADDAC9CD
     Track not present in AccurateRip database
     Copy OK

Track  2

     Filename C:EAC2 - Undiscovered.wav

     Peak level 88.7 %
     Extraction speed 2.7 X
     Track quality 100.0 %
     Test CRC 6A4150F6
     Copy CRC 6A4150F6
     Track not present in AccurateRip database
     Copy OK

Track  3

     Filename C:EAC3 - So blind '81.wav

     Peak level 94.3 %
     Extraction speed 2.8 X
     Track quality 100.0 %
     Test CRC B3C45A68
     Copy CRC B3C45A68
     Track not present in AccurateRip database
     Copy OK

Track  4

     Filename C:EAC4 - Tonight.wav

     Peak level 87.5 %
     Extraction speed 3.1 X
     Track quality 100.0 %
     Test CRC 0C9D7C64
     Copy CRC 0C9D7C64
     Track not present in AccurateRip database
     Copy OK

Track  5

     Filename C:EAC5 - Man in the mirror.wav

     Peak level 89.1 %
     Extraction speed 3.4 X
     Track quality 100.0 %
     Test CRC 6E6F93FA
     Copy CRC 6E6F93FA
     Track not present in AccurateRip database
     Copy OK

Track  6

     Filename C:EAC6 - So blind '82.wav

     Peak level 93.0 %
     Extraction speed 3.3 X
     Track quality 100.0 %
     Test CRC 1735737F
     Copy CRC 1735737F
     Track not present in AccurateRip database
     Copy OK

Track  7

     Filename C:EAC7 - Escape.wav

     Peak level 87.3 %
     Extraction speed 3.6 X
     Track quality 100.0 %
     Test CRC 1A43F40C
     Copy CRC 1A43F40C
     Track not present in AccurateRip database
     Copy OK

Track  8

     Filename C:EAC8 - Waiting for you.wav

     Peak level 94.5 %
     Extraction speed 3.8 X
     Track quality 100.0 %
     Test CRC EA7ECF19
     Copy CRC EA7ECF19
     Track not present in AccurateRip database
     Copy OK

Track  9

     Filename C:EAC9 - Foolish constructions.wav

     Peak level 90.8 %
     Extraction speed 3.7 X
     Track quality 100.0 %
     Test CRC C88A9111
     Copy CRC C88A9111
     Track not present in AccurateRip database
     Copy OK

Track 10

     Filename C:EAC10 - Just rewind.wav

     Peak level 91.2 %
     Extraction speed 4.2 X
     Track quality 100.0 %
     Test CRC 959CBB29
     Copy CRC 959CBB29
     Track not present in AccurateRip database
     Copy OK

Track 11

     Filename C:EAC11 - Show it to me.wav

     Peak level 94.6 %
     Extraction speed 4.5 X
     Track quality 100.0 %
     Test CRC 5368B57A
     Copy CRC 5368B57A
     Track not present in AccurateRip database
     Copy OK

Track 12

     Filename C:EAC12 - Aquarius.wav

     Peak level 91.2 %
     Extraction speed 4.6 X
     Track quality 100.0 %
     Test CRC 9F17DFDD
     Copy CRC 9F17DFDD
     Track not present in AccurateRip database
     Copy OK


None of the tracks are present in the AccurateRip database

No errors occurred

End of status report

==== Log checksum 752575882CB4363BACD7AC036DC17C6F6AC1743E1FA49180C57861B42F93DAF7 ====

Single download
Taurus – Meadow see you again
Taurus – Undiscovered 3:10
Taurus – So blind ’81 3:22
Taurus – Tonight 4:34
Taurus – Man in the mirror 4:19
Taurus – So blind ’82 3:05
Taurus – Escape 3:43
Taurus – Waiting for you 4:04
Taurus – Foolish constructions 2:43
Taurus – Just rewind 4:39
Taurus – Show it to me 5:55
Taurus – Aquarius 5:00

Category:Rock
Main catalog

Recommended:

Yoav – Multiverse (2018) (24bit Hi-Res) FLAC (tracks) Arcade Fire – Reflektor (3CD Deluxe) (2015) FLAC (tracks) The Beach Boys and Royal Philharmonic Orchestra – The Beach Boys With The Royal Philharmonic Orchestra (2018) (24bit Hi-Res) FLAC

About the Author:

music