The Association – The Complete Warner Bros. & Valiant Singles Collection (2012) FLAC music Lossless

The Association - The Complete Warner Bros. & Valiant Singles Collection (2012) FLAC
Artist: The Association | Album: The Complete Warner Bros. & Valiant Singles Collection | Released: 2012 | Genre: Rock

While there are plenty of amazing moments on the Association’s albums that never came anywhere near a single, the group was first and foremost a singles-oriented act, just as L.A. sunshine pop contemporaries like the Beach Boys (Pet Sounds notwithstanding) and the Mamas & the Papas were. That’s part of what makes this anthology such an effective encapsulation of the group’s gestalt. The last major Association anthology, Rhino’s 2002 double-disc release Just the Right Sound, took a more expansive approach to organizing its retrospective. But by presenting the A- and B-sides of each Association single from 1965’s Bob Dylan cover “One Too Many Mornings” to 1971’s “That’s Racin'” in chronological order, the Now Sounds collection allows listeners to experience the group’s evolution in exactly the same way a fan of 45s would have done during the Association’s heyday. And while assembled A-sides like “Along Comes Mary,” “Cherish,” “Windy,” and “Never My Love” lend this two-CD offering a definitive greatest-hits aspect, the B-sides are often non-LP cuts, adding some serious heft to the archival side of the project.

Tracklisting:

CD1

01. One Too Many Mornings 02:54
02. Forty Times 02:19
03. Along Comes Mary 02:50
04. Your Own Love 02:21
05. Cherish 03:15
06. Don’t Blame It on Me 02:29
07. Pandora’s Golden Heebie Jeebies 02:54
08. Standing Still 02:44
09. No Fair at All 02:39
10. Looking Glass 02:13
11. Windy 02:57
12. Sometime 02:38
13. Never My Love 02:55
14. Requiem for the Masses 04:00
15. Everything That Touches You 03:19
16. We Love Us 02:25
17. Time for Livin’ 02:44
18. Birthday Morning 02:23

 Eac log.

Exact Audio Copy V1.0 beta 3 from 29. August 2011

EAC extraction logfile from 5. October 2012, 16:51

The Association / The Complete Warner Bros. & Valiant Singles Collection CD 01

Used drive  : TSSTcorpCDDVDW SH-S223B   Adapter: 0  ID: 2

Read mode               : Secure
Utilize accurate stream : Yes
Defeat audio cache      : Yes
Make use of C2 pointers : No

Read offset correction                      : 6
Overread into Lead-In and Lead-Out          : No
Fill up missing offset samples with silence : Yes
Delete leading and trailing silent blocks   : No
Null samples used in CRC calculations       : Yes
Used interface                              : Native Win32 interface for Win NT & 2000
Gap handling                                : Appended to previous track

Used output format              : User Defined Encoder
Selected bitrate                : 1024 kBit/s
Quality                         : High
Add ID3 tag                     : No
Command line compressor         : C:Program Files (x86)Exact Audio CopyFlacflac.exe
Additional command line options : -8 -V -T "ARTIST=%artist%" -T "TITLE=%title%" -T "ALBUM=%albumtitle%" -T "DATE=%year%" -T "TRACKNUMBER=%tracknr%" -T "GENRE=%genre%" -T "PERFORMER=%albuminterpret%" -T "COMPOSER=%composer%" %haslyrics%--tag-from-file=LYRICS="%lyricsfile%"%haslyrics% -T "ALBUMARTIST=%albumartist%" -T "DISCNUMBER=%cdnumber%" -T "TOTALDISCS=%totalcds%" -T "TOTALTRACKS=%numtracks%" -T "COMMENT=EAC V1.0 beta 3, Secure Mode, Test & Copy, AccurateRip, FLAC -8" %source% -o %dest%


TOC of the extracted CD

    Track |   Start  |  Length  | Start sector | End sector 
   ---------------------------------------------------------
       1  |  0:00.00 |  2:54.02 |         0    |    13051   
       2  |  2:54.02 |  2:19.18 |     13052    |    23494   
       3  |  5:13.20 |  2:50.11 |     23495    |    36255   
       4  |  8:03.31 |  2:20.58 |     36256    |    46813   
       5  | 10:24.14 |  3:15.37 |     46814    |    61475   
       6  | 13:39.51 |  2:28.65 |     61476    |    72640   
       7  | 16:08.41 |  2:53.51 |     72641    |    85666   
       8  | 19:02.17 |  2:44.14 |     85667    |    97980   
       9  | 21:46.31 |  2:38.56 |     97981    |   109886   
      10  | 24:25.12 |  2:13.11 |    109887    |   119872   
      11  | 26:38.23 |  2:56.55 |    119873    |   133127   
      12  | 29:35.03 |  2:38.03 |    133128    |   144980   
      13  | 32:13.06 |  2:55.03 |    144981    |   158108   
      14  | 35:08.09 |  4:00.11 |    158109    |   176119   
      15  | 39:08.20 |  3:19.02 |    176120    |   191046   
      16  | 42:27.22 |  2:24.62 |    191047    |   201908   
      17  | 44:52.09 |  2:43.46 |    201909    |   214179   
      18  | 47:35.55 |  2:23.20 |    214180    |   224924   


Track  1

    Filename D:WhatCD-ripsThe Association - 2012 - The Complete Warner Bros. & Valiant Singles Collection CD 01 (FLAC)1 - One Too Many Mornings.wav

    Pre-gap length  0:00:02.00

    Peak level 84.8 %
    Extraction speed 4.3 X
    Track quality 100.0 %
    Test CRC 8F06B411
    Copy CRC 8F06B411
    Accurately ripped (confidence 1)  [69A96905]  (AR v2)
    Copy OK

Track  2

    Filename D:WhatCD-ripsThe Association - 2012 - The Complete Warner Bros. & Valiant Singles Collection CD 01 (FLAC)2 - Forty Times.wav

    Pre-gap length  0:00:02.00

    Peak level 88.5 %
    Extraction speed 4.4 X
    Track quality 100.0 %
    Test CRC 3ABA1C78
    Copy CRC 3ABA1C78
    Accurately ripped (confidence 1)  [57626EA3]  (AR v2)
    Copy OK

Track  3

    Filename D:WhatCD-ripsThe Association - 2012 - The Complete Warner Bros. & Valiant Singles Collection CD 01 (FLAC)3 - Along Comes Mary.wav

    Pre-gap length  0:00:02.00

    Peak level 88.1 %
    Extraction speed 4.8 X
    Track quality 100.0 %
    Test CRC 15015203
    Copy CRC 15015203
    Accurately ripped (confidence 1)  [A477B82F]  (AR v2)
    Copy OK

Track  4

    Filename D:WhatCD-ripsThe Association - 2012 - The Complete Warner Bros. & Valiant Singles Collection CD 01 (FLAC)4 - Your Own Love.wav

    Pre-gap length  0:00:02.25

    Peak level 83.4 %
    Extraction speed 3.5 X
    Track quality 99.9 %
    Test CRC DF7763DC
    Copy CRC DF7763DC
    Accurately ripped (confidence 1)  [BF011948]  (AR v2)
    Copy OK

Track  5

    Filename D:WhatCD-ripsThe Association - 2012 - The Complete Warner Bros. & Valiant Singles Collection CD 01 (FLAC)5 - Cherish.wav

    Pre-gap length  0:00:02.50

    Peak level 78.0 %
    Extraction speed 5.4 X
    Track quality 100.0 %
    Test CRC 2512E81A
    Copy CRC 2512E81A
    Accurately ripped (confidence 1)  [C369EE25]  (AR v2)
    Copy OK

Track  6

    Filename D:WhatCD-ripsThe Association - 2012 - The Complete Warner Bros. & Valiant Singles Collection CD 01 (FLAC)6 - Don't Blame It on Me.wav

    Pre-gap length  0:00:02.00

    Peak level 96.5 %
    Extraction speed 5.4 X
    Track quality 100.0 %
    Test CRC 761182CD
    Copy CRC 761182CD
    Accurately ripped (confidence 1)  [21FD3027]  (AR v2)
    Copy OK

Track  7

    Filename D:WhatCD-ripsThe Association - 2012 - The Complete Warner Bros. & Valiant Singles Collection CD 01 (FLAC)7 - Pandora's Golden Heebie Jeebies.wav

    Pre-gap length  0:00:02.00

    Peak level 95.9 %
    Extraction speed 5.8 X
    Track quality 100.0 %
    Test CRC F1409680
    Copy CRC F1409680
    Accurately ripped (confidence 1)  [F2F46E3E]  (AR v2)
    Copy OK

Track  8

    Filename D:WhatCD-ripsThe Association - 2012 - The Complete Warner Bros. & Valiant Singles Collection CD 01 (FLAC)8 - Standing Still.wav

    Pre-gap length  0:00:02.50

    Peak level 78.0 %
    Extraction speed 6.0 X
    Track quality 100.0 %
    Test CRC 69D4C723
    Copy CRC 69D4C723
    Accurately ripped (confidence 1)  [EBC74A25]  (AR v2)
    Copy OK

Track  9

    Filename D:WhatCD-ripsThe Association - 2012 - The Complete Warner Bros. & Valiant Singles Collection CD 01 (FLAC)9 - No Fair at All.wav

    Pre-gap length  0:00:02.50

    Peak level 82.6 %
    Extraction speed 6.2 X
    Track quality 100.0 %
    Test CRC 0D498486
    Copy CRC 0D498486
    Accurately ripped (confidence 1)  [DCA931C4]  (AR v2)
    Copy OK

Track 10

    Filename D:WhatCD-ripsThe Association - 2012 - The Complete Warner Bros. & Valiant Singles Collection CD 01 (FLAC)10 - Looking Glass.wav

    Pre-gap length  0:00:02.00

    Peak level 77.2 %
    Extraction speed 4.3 X
    Track quality 99.9 %
    Test CRC 3402C8CB
    Copy CRC 3402C8CB
    Accurately ripped (confidence 1)  [36FF5886]  (AR v2)
    Copy OK

Track 11

    Filename D:WhatCD-ripsThe Association - 2012 - The Complete Warner Bros. & Valiant Singles Collection CD 01 (FLAC)11 - Windy.wav

    Pre-gap length  0:00:02.50

    Peak level 96.4 %
    Extraction speed 6.6 X
    Track quality 100.0 %
    Test CRC 086581DC
    Copy CRC 086581DC
    Accurately ripped (confidence 1)  [F0F2C2BE]  (AR v2)
    Copy OK

Track 12

    Filename D:WhatCD-ripsThe Association - 2012 - The Complete Warner Bros. & Valiant Singles Collection CD 01 (FLAC)12 - Sometime.wav

    Pre-gap length  0:00:02.50

    Peak level 96.5 %
    Extraction speed 4.9 X
    Track quality 99.9 %
    Test CRC C5E637B9
    Copy CRC C5E637B9
    Accurately ripped (confidence 1)  [D9BDA247]  (AR v2)
    Copy OK

Track 13

    Filename D:WhatCD-ripsThe Association - 2012 - The Complete Warner Bros. & Valiant Singles Collection CD 01 (FLAC)13 - Never My Love.wav

    Pre-gap length  0:00:02.50

    Peak level 92.3 %
    Extraction speed 7.0 X
    Track quality 100.0 %
    Test CRC 4735B3DA
    Copy CRC 4735B3DA
    Accurately ripped (confidence 1)  [957F618F]  (AR v2)
    Copy OK

Track 14

    Filename D:WhatCD-ripsThe Association - 2012 - The Complete Warner Bros. & Valiant Singles Collection CD 01 (FLAC)14 - Requiem for the Masses.wav

    Pre-gap length  0:00:02.50

    Peak level 89.8 %
    Extraction speed 7.6 X
    Track quality 100.0 %
    Test CRC 132586E4
    Copy CRC 132586E4
    Accurately ripped (confidence 1)  [7412AFD3]  (AR v2)
    Copy OK

Track 15

    Filename D:WhatCD-ripsThe Association - 2012 - The Complete Warner Bros. & Valiant Singles Collection CD 01 (FLAC)15 - Everything That Touches You.wav

    Pre-gap length  0:00:02.00

    Peak level 80.4 %
    Extraction speed 7.6 X
    Track quality 100.0 %
    Test CRC 166A7228
    Copy CRC 166A7228
    Accurately ripped (confidence 1)  [55E05ACA]  (AR v2)
    Copy OK

Track 16

    Filename D:WhatCD-ripsThe Association - 2012 - The Complete Warner Bros. & Valiant Singles Collection CD 01 (FLAC)16 - We Love Us.wav

    Pre-gap length  0:00:02.25

    Peak level 76.5 %
    Extraction speed 7.3 X
    Track quality 100.0 %
    Test CRC E808792F
    Copy CRC E808792F
    Accurately ripped (confidence 1)  [8DBE399D]  (AR v2)
    Copy OK

Track 17

    Filename D:WhatCD-ripsThe Association - 2012 - The Complete Warner Bros. & Valiant Singles Collection CD 01 (FLAC)17 - Time for Livin'.wav

    Pre-gap length  0:00:02.00

    Peak level 85.7 %
    Extraction speed 7.6 X
    Track quality 100.0 %
    Test CRC 06C6F715
    Copy CRC 06C6F715
    Accurately ripped (confidence 1)  [2BD0A63B]  (AR v2)
    Copy OK

Track 18

    Filename D:WhatCD-ripsThe Association - 2012 - The Complete Warner Bros. & Valiant Singles Collection CD 01 (FLAC)18 - Birthday Morning.wav

    Pre-gap length  0:00:02.50

    Peak level 90.3 %
    Extraction speed 7.6 X
    Track quality 100.0 %
    Test CRC 35E35F3A
    Copy CRC 35E35F3A
    Accurately ripped (confidence 1)  [F14A2424]  (AR v2)
    Copy OK


All tracks accurately ripped

No errors occurred

End of status report

---- CUETools DB Plugin V2.1.4

[CTDB TOCID: mREMbKaz9sC40hLF..MHG3v8P48-] found
Submit result: already submitted
Track | CTDB Status
 1   | (2/2) Accurately ripped
 2   | (2/2) Accurately ripped
 3   | (2/2) Accurately ripped
 4   | (2/2) Accurately ripped
 5   | (2/2) Accurately ripped
 6   | (2/2) Accurately ripped
 7   | (2/2) Accurately ripped
 8   | (2/2) Accurately ripped
 9   | (2/2) Accurately ripped
10   | (2/2) Accurately ripped
11   | (2/2) Accurately ripped
12   | (2/2) Accurately ripped
13   | (2/2) Accurately ripped
14   | (2/2) Accurately ripped
15   | (2/2) Accurately ripped
16   | (2/2) Accurately ripped
17   | (2/2) Accurately ripped
18   | (2/2) Accurately ripped


==== Log checksum 0B29711FC897083CF1B7A5BBA9ABFD64FB13F00D359E59AC466F786B44C7C7F6 ====

CD2

01. Six Man Band 02:25
02. Like Always 02:52
03. Goodbye, Columbus 02:24
04. The Time It Is Today 02:18
05. Under Branches 04:30
06. Hear in Here 03:16
07. Yes, I Will 02:31
08. I Am Up for Europe 02:31
09. Dubuque Blues 03:17
10. Are You Ready 02:46
11. Just About the Same 02:22 *
12. Look at Me, Look at You 03:15 *
13. Along the Way 03:20
14. Traveler’s Guide (Spanish Flyer) 02:17
15. P.F. Sloan 03:34
16. Bring Yourself Home 03:59
17. It’s Gotta Be Real 02:19
18. That’s Racin’ 01:49
19. Makes Me Cry (Funny Kind of Song) 03:20

 Eac log.

Exact Audio Copy V1.0 beta 3 from 29. August 2011

EAC extraction logfile from 5. October 2012, 17:26

The Association / The Complete Warner Bros. & Valiant Singles Collection CD 02

Used drive  : TSSTcorpCDDVDW SH-S223B   Adapter: 0  ID: 2

Read mode               : Secure
Utilize accurate stream : Yes
Defeat audio cache      : Yes
Make use of C2 pointers : No

Read offset correction                      : 6
Overread into Lead-In and Lead-Out          : No
Fill up missing offset samples with silence : Yes
Delete leading and trailing silent blocks   : No
Null samples used in CRC calculations       : Yes
Used interface                              : Native Win32 interface for Win NT & 2000
Gap handling                                : Appended to previous track

Used output format              : User Defined Encoder
Selected bitrate                : 1024 kBit/s
Quality                         : High
Add ID3 tag                     : No
Command line compressor         : C:Program Files (x86)Exact Audio CopyFlacflac.exe
Additional command line options : -8 -V -T "ARTIST=%artist%" -T "TITLE=%title%" -T "ALBUM=%albumtitle%" -T "DATE=%year%" -T "TRACKNUMBER=%tracknr%" -T "GENRE=%genre%" -T "PERFORMER=%albuminterpret%" -T "COMPOSER=%composer%" %haslyrics%--tag-from-file=LYRICS="%lyricsfile%"%haslyrics% -T "ALBUMARTIST=%albumartist%" -T "DISCNUMBER=%cdnumber%" -T "TOTALDISCS=%totalcds%" -T "TOTALTRACKS=%numtracks%" -T "COMMENT=EAC V1.0 beta 3, Secure Mode, Test & Copy, AccurateRip, FLAC -8" %source% -o %dest%


TOC of the extracted CD

    Track |   Start  |  Length  | Start sector | End sector 
   ---------------------------------------------------------
       1  |  0:00.00 |  2:25.12 |         0    |    10886   
       2  |  2:25.12 |  2:52.03 |     10887    |    23789   
       3  |  5:17.15 |  2:24.34 |     23790    |    34623   
       4  |  7:41.49 |  2:17.49 |     34624    |    44947   
       5  |  9:59.23 |  4:29.61 |     44948    |    65183   
       6  | 14:29.09 |  3:15.71 |     65184    |    79879   
       7  | 17:45.05 |  2:31.24 |     79880    |    91228   
       8  | 20:16.29 |  2:30.70 |     91229    |   102548   
       9  | 22:47.24 |  3:16.66 |    102549    |   117314   
      10  | 26:04.15 |  2:46.37 |    117315    |   129801   
      11  | 28:50.52 |  2:22.05 |    129802    |   140456   
      12  | 31:12.57 |  3:15.08 |    140457    |   155089   
      13  | 34:27.65 |  3:19.68 |    155090    |   170082   
      14  | 37:47.58 |  2:16.68 |    170083    |   180350   
      15  | 40:04.51 |  3:34.16 |    180351    |   196416   
      16  | 43:38.67 |  3:58.64 |    196417    |   214330   
      17  | 47:37.56 |  2:19.04 |    214331    |   224759   
      18  | 49:56.60 |  1:49.35 |    224760    |   232969   
      19  | 51:46.20 |  3:19.52 |    232970    |   247946   


Track  1

    Filename D:WhatCD-ripsThe Association - 2012 - The Complete Warner Bros. & Valiant Singles Collection CD 02 (FLAC)1 - Six Man Band.wav

    Pre-gap length  0:00:02.00

    Peak level 81.9 %
    Extraction speed 4.1 X
    Track quality 100.0 %
    Test CRC E3E1AF77
    Copy CRC E3E1AF77
    Accurately ripped (confidence 1)  [CF7ECBA2]  (AR v2)
    Copy OK

Track  2

    Filename D:WhatCD-ripsThe Association - 2012 - The Complete Warner Bros. & Valiant Singles Collection CD 02 (FLAC)2 - Like Always.wav

    Pre-gap length  0:00:02.00

    Peak level 78.5 %
    Extraction speed 4.6 X
    Track quality 100.0 %
    Test CRC AE1FF59B
    Copy CRC AE1FF59B
    Accurately ripped (confidence 1)  [CE71C311]  (AR v2)
    Copy OK

Track  3

    Filename D:WhatCD-ripsThe Association - 2012 - The Complete Warner Bros. & Valiant Singles Collection CD 02 (FLAC)3 - Goodbye, Columbus.wav

    Pre-gap length  0:00:02.00

    Peak level 75.1 %
    Extraction speed 4.6 X
    Track quality 100.0 %
    Test CRC B31F072F
    Copy CRC B31F072F
    Accurately ripped (confidence 1)  [8DD231E2]  (AR v2)
    Copy OK

Track  4

    Filename D:WhatCD-ripsThe Association - 2012 - The Complete Warner Bros. & Valiant Singles Collection CD 02 (FLAC)4 - The Time It Is Today.wav

    Pre-gap length  0:00:02.00

    Peak level 80.6 %
    Extraction speed 4.8 X
    Track quality 100.0 %
    Test CRC 2426BBCB
    Copy CRC 2426BBCB
    Accurately ripped (confidence 1)  [20C14321]  (AR v2)
    Copy OK

Track  5

    Filename D:WhatCD-ripsThe Association - 2012 - The Complete Warner Bros. & Valiant Singles Collection CD 02 (FLAC)5 - Under Branches.wav

    Pre-gap length  0:00:02.00

    Peak level 86.6 %
    Extraction speed 5.7 X
    Track quality 100.0 %
    Test CRC 7ECC6E06
    Copy CRC 7ECC6E06
    Accurately ripped (confidence 1)  [42C40DE5]  (AR v2)
    Copy OK

Track  6

    Filename D:WhatCD-ripsThe Association - 2012 - The Complete Warner Bros. & Valiant Singles Collection CD 02 (FLAC)6 - Hear in Here.wav

    Pre-gap length  0:00:02.00

    Peak level 76.1 %
    Extraction speed 5.8 X
    Track quality 100.0 %
    Test CRC 9252F7B7
    Copy CRC 9252F7B7
    Accurately ripped (confidence 1)  [49975563]  (AR v2)
    Copy OK

Track  7

    Filename D:WhatCD-ripsThe Association - 2012 - The Complete Warner Bros. & Valiant Singles Collection CD 02 (FLAC)7 - Yes, I Will.wav

    Pre-gap length  0:00:02.50

    Peak level 96.5 %
    Extraction speed 5.8 X
    Track quality 100.0 %
    Test CRC 63175E9A
    Copy CRC 63175E9A
    Accurately ripped (confidence 1)  [262271BB]  (AR v2)
    Copy OK

Track  8

    Filename D:WhatCD-ripsThe Association - 2012 - The Complete Warner Bros. & Valiant Singles Collection CD 02 (FLAC)8 - I Am Up for Europe.wav

    Pre-gap length  0:00:02.00

    Peak level 90.5 %
    Extraction speed 6.0 X
    Track quality 100.0 %
    Test CRC C6C1AFAD
    Copy CRC C6C1AFAD
    Accurately ripped (confidence 1)  [77CFE03B]  (AR v2)
    Copy OK

Track  9

    Filename D:WhatCD-ripsThe Association - 2012 - The Complete Warner Bros. & Valiant Singles Collection CD 02 (FLAC)9 - Dubuque Blues.wav

    Pre-gap length  0:00:02.25

    Peak level 88.8 %
    Extraction speed 5.0 X
    Track quality 99.9 %
    Test CRC 01C50DEA
    Copy CRC 01C50DEA
    Accurately ripped (confidence 1)  [CD438228]  (AR v2)
    Copy OK

Track 10

    Filename D:WhatCD-ripsThe Association - 2012 - The Complete Warner Bros. & Valiant Singles Collection CD 02 (FLAC)10 - Are You Ready.wav

    Pre-gap length  0:00:03.00

    Peak level 81.2 %
    Extraction speed 6.5 X
    Track quality 100.0 %
    Test CRC 035D6CBE
    Copy CRC 035D6CBE
    Accurately ripped (confidence 1)  [6411E7D8]  (AR v2)
    Copy OK

Track 11

    Filename D:WhatCD-ripsThe Association - 2012 - The Complete Warner Bros. & Valiant Singles Collection CD 02 (FLAC)11 - Just About the Same.wav

    Pre-gap length  0:00:02.50

    Peak level 73.1 %
    Extraction speed 4.6 X
    Track quality 99.9 %
    Test CRC A65640C7
    Copy CRC A65640C7
    Accurately ripped (confidence 1)  [F2A728F1]  (AR v2)
    Copy OK

Track 12

    Filename D:WhatCD-ripsThe Association - 2012 - The Complete Warner Bros. & Valiant Singles Collection CD 02 (FLAC)12 - Look at Me, Look at You.wav

    Pre-gap length  0:00:02.00

    Peak level 96.5 %
    Extraction speed 7.1 X
    Track quality 100.0 %
    Test CRC 5D0EEE83
    Copy CRC 5D0EEE83
    Accurately ripped (confidence 1)  [FB3B8E1D]  (AR v2)
    Copy OK

Track 13

    Filename D:WhatCD-ripsThe Association - 2012 - The Complete Warner Bros. & Valiant Singles Collection CD 02 (FLAC)13 - Along the Way.wav

    Pre-gap length  0:00:02.00

    Peak level 78.3 %
    Extraction speed 7.3 X
    Track quality 100.0 %
    Test CRC 21440348
    Copy CRC 21440348
    Accurately ripped (confidence 1)  [1758EF2F]  (AR v2)
    Copy OK

Track 14

    Filename D:WhatCD-ripsThe Association - 2012 - The Complete Warner Bros. & Valiant Singles Collection CD 02 (FLAC)14 - Traveler's Guide (Spanish Flyer).wav

    Pre-gap length  0:00:02.50

    Peak level 94.4 %
    Extraction speed 7.0 X
    Track quality 100.0 %
    Test CRC ECE26143
    Copy CRC ECE26143
    Accurately ripped (confidence 1)  [F6ADD898]  (AR v2)
    Copy OK

Track 15

    Filename D:WhatCD-ripsThe Association - 2012 - The Complete Warner Bros. & Valiant Singles Collection CD 02 (FLAC)15 - P.F. Sloan.wav

    Pre-gap length  0:00:02.50

    Peak level 96.5 %
    Extraction speed 7.8 X
    Track quality 100.0 %
    Test CRC 46CB4F7B
    Copy CRC 46CB4F7B
    Accurately ripped (confidence 1)  [B6088832]  (AR v2)
    Copy OK

Track 16

    Filename D:WhatCD-ripsThe Association - 2012 - The Complete Warner Bros. & Valiant Singles Collection CD 02 (FLAC)16 - Bring Yourself Home.wav

    Pre-gap length  0:00:02.50

    Peak level 96.5 %
    Extraction speed 8.2 X
    Track quality 100.0 %
    Test CRC 694E72E4
    Copy CRC 694E72E4
    Accurately ripped (confidence 1)  [2F58715C]  (AR v2)
    Copy OK

Track 17

    Filename D:WhatCD-ripsThe Association - 2012 - The Complete Warner Bros. & Valiant Singles Collection CD 02 (FLAC)17 - It's Gotta Be Real.wav

    Pre-gap length  0:00:02.00

    Peak level 92.3 %
    Extraction speed 7.6 X
    Track quality 100.0 %
    Test CRC 53E06AC6
    Copy CRC 53E06AC6
    Accurately ripped (confidence 1)  [8E31B917]  (AR v2)
    Copy OK

Track 18

    Filename D:WhatCD-ripsThe Association - 2012 - The Complete Warner Bros. & Valiant Singles Collection CD 02 (FLAC)18 - That's Racing.wav

    Pre-gap length  0:00:02.00

    Peak level 81.4 %
    Extraction speed 7.1 X
    Track quality 100.0 %
    Test CRC E47530DA
    Copy CRC E47530DA
    Accurately ripped (confidence 1)  [0B5174C4]  (AR v2)
    Copy OK

Track 19

    Filename D:WhatCD-ripsThe Association - 2012 - The Complete Warner Bros. & Valiant Singles Collection CD 02 (FLAC)19 - Makes Me Cry (Funny Kind of Song).wav

    Pre-gap length  0:00:02.50

    Peak level 87.3 %
    Extraction speed 8.3 X
    Track quality 100.0 %
    Test CRC EE7E39A2
    Copy CRC EE7E39A2
    Accurately ripped (confidence 1)  [03CC40FB]  (AR v2)
    Copy OK


All tracks accurately ripped

No errors occurred

End of status report

---- CUETools DB Plugin V2.1.4

[CTDB TOCID: ufarKc7U.Sj55pm09YgXT3NEkPQ-] found
Submit result: ufarKc7U.Sj55pm09YgXT3NEkPQ- has been confirmed
Track | CTDB Status
 1   | (1/1) Accurately ripped
 2   | (1/1) Accurately ripped
 3   | (1/1) Accurately ripped
 4   | (1/1) Accurately ripped
 5   | (1/1) Accurately ripped
 6   | (1/1) Accurately ripped
 7   | (1/1) Accurately ripped
 8   | (1/1) Accurately ripped
 9   | (1/1) Accurately ripped
10   | (1/1) Accurately ripped
11   | (1/1) Accurately ripped
12   | (1/1) Accurately ripped
13   | (1/1) Accurately ripped
14   | (1/1) Accurately ripped
15   | (1/1) Accurately ripped
16   | (1/1) Accurately ripped
17   | (1/1) Accurately ripped
18   | (1/1) Accurately ripped
19   | (1/1) Accurately ripped


==== Log checksum 24D28ED0C327D752E38A2F9712982444F5DE3BCFD65F1A72ED66DEA7B773E26C ====

Single download
The Association – One Too Many Mornings 02:54
The Association – Forty Times 02:19
The Association – Along Comes Mary 02:50
The Association – Your Own Love 02:21
The Association – Cherish 03:15
The Association – Don’t Blame It on Me 02:29
The Association – Pandora’s Golden Heebie Jeebies 02:54
The Association – Standing Still 02:44
The Association – No Fair at All 02:39
The Association – Looking Glass 02:13
The Association – Windy 02:57
The Association – Sometime 02:38
The Association – Never My Love 02:55
The Association – Requiem for the Masses 04:00
The Association – Everything That Touches You 03:19
The Association – We Love Us 02:25
The Association – Time for Livin’ 02:44
The Association – Birthday Morning 02:23
The Association – Six Man Band 02:25
The Association – Like Always 02:52
The Association – Goodbye, Columbus 02:24
The Association – The Time It Is Today 02:18
The Association – Under Branches 04:30
The Association – Hear in Here 03:16
The Association – Yes, I Will 02:31
The Association – I Am Up for Europe 02:31
The Association – Dubuque Blues 03:17
The Association – Are You Ready 02:46
The Association – Just About the Same 02:22 *
The Association – Look at Me, Look at You 03:15 *
The Association – Along the Way 03:20
The Association – Traveler’s Guide Spanish Flyer
The Association – P.F. Sloan 03:34
The Association – Bring Yourself Home 03:59
The Association – It’s Gotta Be Real 02:19
The Association – That’s Racin’ 01:49
The Association – Makes Me Cry Funny Kind of Song

Category:Rock
Main catalog

Recommended:

The Rhythm Shakers – Voodoo (2014) FLAC (tracks + .cue) Spock’s Beard – Snow Live (2017) FLAC (image + .cue) Yes – The Steven Wilson Remixes (2018) (24bit Hi-Res) FLAC

About the Author:

music