The Beatles – 1963: BBC Sessions (1963, 2017) FLAC (image + .cue) music Lossless

The Beatles - 1963: BBC Sessions (1963, 2017) FLAC (image + .cue)
Artist: The Beatles | Album: 1963: BBC Sessions | Released: 1963, 2017 | Label: Copacetic Records | Catalog #: CSPC001-CD | Genre: Rock, Classic Rock | Country: UK | Duration: 00:39:11

Tracklisting:

01. A Taste of Honey (2:04)
02. The Hippy Hippy Shake (1:43)
03. You Really Got a Hold on Me (2:54)
04. Till There Was You (2:14)
05. A Shot of Rhythm and Blues (2:06)
06. Chains (2:23)
07. Money (2:41)
08. Anna (Go to Him) (3:03)
09. Love Me Do (2:29)
10. She Loves You (2:16)
11. I’ll Get You (2:06)
12. Long Tall Sally (1:49)
13. Boys (2:13)
14. Please Please Me (1:57)
15. Do You Want to Know a Secret (1:55)
16. I Saw Her Standing There (2:41)
17. Twist and Shout (2:37)

 Log Exact Audio Copy

Exact Audio Copy V1.3 from 2. September 2016

EAC extraction logfile from 10. March 2018, 16:11

The Beatles / 1963 BBC Sessions

Used drive  : ATAPI   iHAS122   C   Adapter: 1  ID: 0

Read mode               : Secure
Utilize accurate stream : Yes
Defeat audio cache      : Yes
Make use of C2 pointers : No

Read offset correction                      : 6
Overread into Lead-In and Lead-Out          : No
Fill up missing offset samples with silence : Yes
Delete leading and trailing silent blocks   : No
Null samples used in CRC calculations       : Yes
Used interface                              : Native Win32 interface for Win NT & 2000

Used output format : Internal WAV Routines
Sample format      : 44.100 Hz; 16 Bit; Stereo


TOC of the extracted CD

     Track |   Start  |  Length  | Start sector | End sector 
    ---------------------------------------------------------
        1  |  0:00.00 |  2:04.35 |         0    |     9334   
        2  |  2:04.35 |  1:42.65 |      9335    |    17049   
        3  |  3:47.25 |  2:54.08 |     17050    |    30107   
        4  |  6:41.33 |  2:13.50 |     30108    |    40132   
        5  |  8:55.08 |  2:06.16 |     40133    |    49598   
        6  | 11:01.24 |  2:23.29 |     49599    |    60352   
        7  | 13:24.53 |  2:40.53 |     60353    |    72405   
        8  | 16:05.31 |  3:02.39 |     72406    |    86094   
        9  | 19:07.70 |  2:29.29 |     86095    |    97298   
       10  | 21:37.24 |  2:16.16 |     97299    |   107514   
       11  | 23:53.40 |  2:05.38 |    107515    |   116927   
       12  | 25:59.03 |  1:49.17 |    116928    |   125119   
       13  | 27:48.20 |  2:12.39 |    125120    |   135058   
       14  | 30:00.59 |  1:57.13 |    135059    |   143846   
       15  | 31:57.72 |  1:55.13 |    143847    |   152484   
       16  | 33:53.10 |  2:41.15 |    152485    |   164574   
       17  | 36:34.25 |  2:37.10 |    164575    |   176359   


Range status and errors

Selected range

     Filename C:UsersLondonDesktopThe Beatles - 1963 BBC Sessions.wav

     Peak level 99.2 %
     Extraction speed 7.5 X
     Range quality 100.0 %
     Test CRC D2BEF390
     Copy CRC D2BEF390
     Copy OK

No errors occurred

 
AccurateRip summary
 
Track  1  not present in database
Track  2  not present in database
Track  3  not present in database
Track  4  not present in database
Track  5  not present in database
Track  6  not present in database
Track  7  not present in database
Track  8  not present in database
Track  9  not present in database
Track 10  not present in database
Track 11  not present in database
Track 12  not present in database
Track 13  not present in database
Track 14  not present in database
Track 15  not present in database
Track 16  not present in database
Track 17  not present in database
 
None of the tracks are present in the AccurateRip database

End of status report

---- CUETools DB Plugin V2.1.6

[CTDB TOCID: an50v7nKVYKFf61jcrFSr3KeHdU-] disk not present in database
Submit result: an50v7nKVYKFf61jcrFSr3KeHdU- has been uploaded


==== Log checksum 31C7A593CBF431A5E9246544B791DFC56794DF96B2E40B3B78452313BE012246 ====

Single download
The Beatles – A Taste of Honey 2:04
The Beatles – The Hippy Hippy Shake 1:43
The Beatles – You Really Got a Hold on Me 2:54
The Beatles – Till There Was You 2:14
The Beatles – A Shot of Rhythm and Blues 2:06
The Beatles – Chains 2:23
The Beatles – Money 2:41
The Beatles – Anna Go to Him
The Beatles – Love Me Do 2:29
The Beatles – She Loves You 2:16
The Beatles – I’ll Get You 2:06
The Beatles – Long Tall Sally 1:49
The Beatles – Boys 2:13
The Beatles – Please Please Me 1:57
The Beatles – Do You Want to Know a Secret 1:55
The Beatles – I Saw Her Standing There 2:41
The Beatles – Twist and Shout 2:37

Category:Rock
Main catalog

Recommended:

Elvis Presley – Where No One Stands Alone (2018) FLAC Say Hi – Free Samples (Music From The Film) (2013) FLAC (tracks) The Subways – The Subways (2015) FLAC (tracks + .cue)

About the Author:

music