The Load – Load Have Mercy (1977, 1995) FLAC (image + .cue) music Lossless

The Load - Load Have Mercy (1977, 1995) FLAC (image + .cue)
Artist: The Load | Album: Load Have Mercy | Released: 1977, 1995 | Label: The Laser’s Edge | Catalog #: LE 1023 | Genre: Rock, Progressive Rock | Country: US | Duration: 00:58:20

Tracklisting:

01. Mobilized (6:24)
02. One is Gone (1:41)
03. Something Suite (8:26)
04. Richter Scale (5:54)
05. Interstellar Debris (3:20)
06. The Narrows (6:11)
07. Choices (1:20)
08. Too Much to Believe (13:12)
09. Eitel’s Lament (11:52)

 Log Exact Audio Copy

Exact Audio Copy V0.99 prebeta 4 from 23. January 2008

EAC extraction logfile from 20. March 2011, 11:45

The Load / Load Have Mercy

Used drive  : Optiarc DVD RW AD-7170S   Adapter: 1  ID: 0

Read mode               : Secure
Utilize accurate stream : Yes
Defeat audio cache      : Yes
Make use of C2 pointers : No

Read offset correction                      : 48
Overread into Lead-In and Lead-Out          : No
Fill up missing offset samples with silence : Yes
Delete leading and trailing silent blocks   : No
Null samples used in CRC calculations       : Yes
Used interface                              : Native Win32 interface for Win NT & 2000

Used output format              : User Defined Encoder
Selected bitrate                : 128 kBit/s
Quality                         : High
Add ID3 tag                     : No
Command line compressor         : G:Program FilesExact Audio CopyFlacflac.exe
Additional command line options : -8 -V %s


TOC of the extracted CD

     Track |   Start  |  Length  | Start sector | End sector 
    ---------------------------------------------------------
        1  |  0:00.00 |  6:24.17 |         0    |    28816   
        2  |  6:24.17 |  1:41.03 |     28817    |    36394   
        3  |  8:05.20 |  8:25.47 |     36395    |    74316   
        4  | 16:30.67 |  5:54.05 |     74317    |   100871   
        5  | 22:24.72 |  3:20.20 |    100872    |   115891   
        6  | 25:45.17 |  6:11.08 |    115892    |   143724   
        7  | 31:56.25 |  1:19.62 |    143725    |   149711   
        8  | 33:16.12 | 13:12.15 |    149712    |   209126   
        9  | 46:28.27 | 11:51.68 |    209127    |   262519   


Range status and errors

Selected range

     Filename D:terr83The Load - Load Have Mercy 1977CDImage.wav

     Peak level 99.8 %
     Range quality 100.0 %
     Test CRC 11116B24
     Copy CRC 11116B24
     Copy OK

No errors occurred

 
AccurateRip summary
 
Track  1  accurately ripped (confidence 2)  [F2B66E54]
Track  2  accurately ripped (confidence 2)  [001E8E90]
Track  3  accurately ripped (confidence 2)  [BE3F64F1]
Track  4  accurately ripped (confidence 2)  [8CE1E771]
Track  5  accurately ripped (confidence 2)  [A53F79BF]
Track  6  accurately ripped (confidence 2)  [394C797F]
Track  7  accurately ripped (confidence 2)  [414AC74E]
Track  8  accurately ripped (confidence 2)  [E2CF09E6]
Track  9  accurately ripped (confidence 2)  [30682261]
 
All tracks accurately ripped

End of status report

Single download
The Load – Mobilized 6:24
The Load – One is Gone 1:41
The Load – Something Suite 8:26
The Load – Richter Scale 5:54
The Load – Interstellar Debris 3:20
The Load – The Narrows 6:11
The Load – Choices 1:20
The Load – Too Much to Believe 13:12
The Load – Eitel’s Lament 11:52

Category:Rock
Main catalog

Recommended:

Pink Floyd – Obscured By Clouds (1972, 2017) FLAC (image + .cue) The Rolling Stones – Complete BBC Sessions 1963 – 1965 (2017) FLAC (image + .cue) Roger Taylor – Best (2014) FLAC (image + .cue)

About the Author:

music