The Tea Party – Splendor Solis (1993) FLAC (tracks+.cue) music Lossless

The Tea Party - Splendor Solis (1993) FLAC (tracks+.cue)
Artist: The Tea Party | Album: Splendor Solis | Released: 1993 | Genre: Rock, Canadian Rock

Toronto, Canada’s the Tea Party sound like Jim Morrison singing for Led Zeppelin in their most exotic Middle Eastern moments. As evidenced on their 1993 debut album, Splendor Solis was a smash in Canada with sales of a million copies — pretty impressive when one remembers that due to that country’s small population — platinum status is awarded at 250,000 units. First track “The River” sets the tone with its esoteric lyrics, Eastern-influenced guitar licks, and tribal drumming. After a beautiful acoustic guitar solo called “Winter Solstice,” we arrive at the album’s piece de resistance: “Save Me,” which slowly builds, trance-like, for over six minutes. Overall, this is a fine, if slightly pretentious album. Perhaps the band could improve upon their formula with a follow-up.

Tracklisting:

01. The River (5:44)
02. Midsummer Day (5:59)
03. A Certain Slant Of Light (5:00)
04. Winter Solstice (2:45)
05. Save Me (6:35)
06. Sun Going Down (6:38)
07. In This Time (4:57)
08. Dreams Of Reason (6:19)
09. Raven Skies (5:17)
10. Haze On The Hills (2:23)
11. The Majestic Song (4:37)

 EAC log

Exact Audio Copy V0.99 prebeta 3 from 28. July 2007

EAC extraction logfile from 21. July 2008, 11:04

Tea Party / Splendor Solis

Used drive : PLEXTOR DVDR PX-716A Adapter: 2 ID: 0

Read mode : Secure
Utilize accurate stream : Yes
Defeat audio cache : Yes
Make use of C2 pointers : No

Read offset correction : 30
Overread into Lead-In and Lead-Out : No
Fill up missing offset samples with silence : Yes
Delete leading and trailing silent blocks : No
Null samples used in CRC calculations : Yes
Used interface : Installed external ASPI interface
Gap handling : Appended to previous track

Used output format : User Defined Encoder
Selected bitrate : 1024 kBit/s
Quality : High
Add ID3 tag : No
Command line compressor : C:Program FilesExact Audio CopyFlacflac.exe
Additional command line options : -6 -V -T "ARTIST=%a" -T "TITLE=%t" -T "ALBUM=%g" -T "DATE=%y" -T "TRACKNUMBER=%n" -T "GENRE=%m" -T "COMMENT=%e" %s -o %d

TOC of the extracted CD

Track | Start | Length | Start sector | End sector
---------------------------------------------------------
1 | 0:00.32 | 5:43.38 | 32 | 25794
2 | 5:43.70 | 5:58.57 | 25795 | 52701
3 | 11:42.52 | 4:59.60 | 52702 | 75186
4 | 16:42.37 | 2:44.48 | 75187 | 87534
5 | 19:27.10 | 6:34.45 | 87535 | 117129
6 | 26:01.55 | 6:38.20 | 117130 | 146999
7 | 32:40.00 | 4:57.00 | 147000 | 169274
8 | 37:37.00 | 6:18.67 | 169275 | 197691
9 | 43:55.67 | 5:16.45 | 197692 | 221436
10 | 49:12.37 | 2:23.35 | 221437 | 232196
11 | 51:35.72 | 4:37.25 | 232197 | 252996

Track 1

Filename C:Documents and SettingsMichael HMy DocumentsEAC ripsTea Party - Splendor Solis - 01. The River.wav

Pre-gap length 0:00:02.32

Peak level 97.7 %
Track quality 100.0 %
Test CRC C02EEA1C
Copy CRC C02EEA1C
Accurately ripped (confidence 8) [9604E796]
Copy OK

Track 2

Filename C:Documents and SettingsMichael HMy DocumentsEAC ripsTea Party - Splendor Solis - 02. Midsummer Day.wav

Pre-gap length 0:00:00.33

Peak level 97.7 %
Track quality 100.0 %
Test CRC 976C83AF
Copy CRC 976C83AF
Accurately ripped (confidence 7) [9632975E]
Copy OK

Track 3

Filename C:Documents and SettingsMichael HMy DocumentsEAC ripsTea Party - Splendor Solis - 03. A Certain Slant Of Light.wav

Pre-gap length 0:00:01.25

Peak level 97.7 %
Track quality 100.0 %
Test CRC 7B33B6DD
Copy CRC 7B33B6DD
Accurately ripped (confidence 7) [AA839685]
Copy OK

Track 4

Filename C:Documents and SettingsMichael HMy DocumentsEAC ripsTea Party - Splendor Solis - 04. Winter Solstice.wav

Pre-gap length 0:00:00.25

Peak level 97.7 %
Track quality 100.0 %
Test CRC 8B6DF3D4
Copy CRC 8B6DF3D4
Accurately ripped (confidence 7) [9A9197D4]
Copy OK

Track 5

Filename C:Documents and SettingsMichael HMy DocumentsEAC ripsTea Party - Splendor Solis - 05. Save Me.wav

Pre-gap length 0:00:00.40

Peak level 97.7 %
Track quality 100.0 %
Test CRC 9FF06567
Copy CRC 9FF06567
Accurately ripped (confidence 7) [DB8B7216]
Copy OK

Track 6

Filename C:Documents and SettingsMichael HMy DocumentsEAC ripsTea Party - Splendor Solis - 06. Sun Going Down.wav

Pre-gap length 0:00:00.38

Peak level 97.7 %
Track quality 100.0 %
Test CRC E95924C0
Copy CRC E95924C0
Accurately ripped (confidence 8) [3A0E0FEA]
Copy OK

Track 7

Filename C:Documents and SettingsMichael HMy DocumentsEAC ripsTea Party - Splendor Solis - 07. In This Time.wav

Pre-gap length 0:00:06.30

Peak level 97.5 %
Track quality 100.0 %
Test CRC 3A0846EE
Copy CRC 3A0846EE
Accurately ripped (confidence 7) [9EF6AB13]
Copy OK

Track 8

Filename C:Documents and SettingsMichael HMy DocumentsEAC ripsTea Party - Splendor Solis - 08. Dreams Of Reason.wav

Pre-gap length 0:00:00.38

Peak level 97.5 %
Track quality 99.9 %
Test CRC 83D40433
Copy CRC 83D40433
Accurately ripped (confidence 7) [182AE9DF]
Copy OK

Track 9

Filename C:Documents and SettingsMichael HMy DocumentsEAC ripsTea Party - Splendor Solis - 09. Raven Skies.wav

Pre-gap length 0:00:01.35

Peak level 97.6 %
Track quality 100.0 %
Test CRC 360AC48E
Copy CRC 360AC48E
Accurately ripped (confidence 7) [1B82C933]
Copy OK

Track 10

Filename C:Documents and SettingsMichael HMy DocumentsEAC ripsTea Party - Splendor Solis - 10. Haze On The Hills.wav

Pre-gap length 0:00:00.30

Peak level 25.6 %
Track quality 99.9 %
Test CRC 58C15139
Copy CRC 58C15139
Accurately ripped (confidence 7) [7AF4E241]
Copy OK

Track 11

Filename C:Documents and SettingsMichael HMy DocumentsEAC ripsTea Party - Splendor Solis - 11. The Majestic Song.wav

Peak level 97.7 %
Track quality 100.0 %
Test CRC CEA404B6
Copy CRC CEA404B6
Accurately ripped (confidence 7) [11EBF1D0]
Copy OK

All tracks accurately ripped

No errors occurred

End of status report

Single download
The Tea Party – The River 5:44
The Tea Party – Midsummer Day 5:59
The Tea Party – A Certain Slant Of Light 5:00
The Tea Party – Winter Solstice 2:45
The Tea Party – Save Me 6:35
The Tea Party – Sun Going Down 6:38
The Tea Party – In This Time 4:57
The Tea Party – Dreams Of Reason 6:19
The Tea Party – Raven Skies 5:17
The Tea Party – Haze On The Hills 2:23
The Tea Party – The Majestic Song 4:37

Category:Rock
Main catalog

Recommended:

BAP – Sonx (2004) WV (image + .cue) Serj Tankian – Elect The Dead (2007) FLAC VA – Soft Rock Ballads (2006) FLAC (tracks + .cue)

About the Author:

music