The Tea Party – TRIPtych (1999) FLAC music Lossless

The Tea Party - TRIPtych (1999) FLAC
Artist: The Tea Party | Album: TRIPtych | Released: 1999 | Genre: Rock

The Tea Party have taken their fair share of bruises over the years from the perennial criticisms that they are really nothing more than lukewarm derivatives; however, in some ways, they have admittedly brought such derogatory remarks and comparisons on themselves. On Splendor Solis, the band converged at an obvious musical fondness for Led Zeppelin and lyrical affection for the poetic musings of Jim Morrison; the end result was an album with a very earthy, mystical feel, and while the careful ear could soon ferret out qualities of distinction between teacher and student after several listens, many critics never got past the bowed guitar lines of “Save Me” before denouncing them altogether. For The Edges Of Twilight, the band took their interests in world music — particularly through genuine eastern instruments – further and higher than even Page himself had ever attempted, but with advents into British folk and the blues, and worse yet, with parts of “Fire In The Head” sounding reasonably similar to “Kashmir,” copycat cries resurfaced yet again, and the band still seemed unable to fully attain the respect one can only imagine of which they felt deprived (and rightfully deserved); things were not helped much by the fact that Martin had a striking vocal similarity to Morrison at times. Finally, the trio suddenly turned 180 degrees and sped away into an entirely new direction on 1997’s Transmission by once again shedding the skin of past procedure to make room for heavy bouts of Nine Inch Nails-style, industrial electronica (yet, without sacrificing the touchstones of their identity); for once, there were no more glib analogies and most agreed that the Tea Party’s time had come, but the surprising course they had set for themselves left the unanswered question of “where will they go next?” hanging in midair — would they follow the tide of this latest fascination or would there be something of a return to form?

Tracklisting:

01 Touch
02 Underground
03 Great Big Lie
04 Heaven Coming Down
05 The Halycon Days
06 The Messenger
07 Samsara
08 A Slight Attack
09 Taking Me Away
10 These Living Arms
11 Chimera
12 Gone
13 [Untitled Track]

 Log Exact Audio Copy

Exact Audio Copy V0.99 prebeta 4 from 23. January 2008

EAC extraction logfile from 24. May 2008, 14:29

The Tea Party / TRIPtych

Used drive  : TOSHIBA ODD-DVD SD-R6372   Adapter: 1  ID: 0

Read mode               : Secure
Utilize accurate stream : Yes
Defeat audio cache      : Yes
Make use of C2 pointers : No

Read offset correction                      : 116
Overread into Lead-In and Lead-Out          : No
Fill up missing offset samples with silence : Yes
Delete leading and trailing silent blocks   : No
Null samples used in CRC calculations       : Yes
Used interface                              : Native Win32 interface for Win NT & 2000
Gap handling                                : Appended to previous track

Used output format              : User Defined Encoder
Selected bitrate                : 768 kBit/s
Quality                         : High
Add ID3 tag                     : No
Command line compressor         : C:Program FilesFLACflac.exe
Additional command line options : -V -8 -T "artist=%a" -T "title=%t" -T "album=%g" -T "date=%y" -T "tracknumber=%n" %s


TOC of the extracted CD

    Track |   Start  |  Length  | Start sector | End sector 
   ---------------------------------------------------------
       1  |  0:00.00 |  3:57.07 |         0    |    17781   
       2  |  3:57.07 |  3:41.28 |     17782    |    34384   
       3  |  7:38.35 |  3:50.25 |     34385    |    51659   
       4  | 11:28.60 |  4:01.22 |     51660    |    69756   
       5  | 15:30.07 |  5:57.65 |     69757    |    96596   
       6  | 21:27.72 |  3:32.35 |     96597    |   112531   
       7  | 25:00.32 |  3:56.55 |    112532    |   130286   
       8  | 28:57.12 |  3:15.38 |    130287    |   144949   
       9  | 32:12.50 |  5:02.65 |    144950    |   167664   
      10  | 37:15.40 |  5:05.17 |    167665    |   190556   
      11  | 42:20.57 |  4:29.33 |    190557    |   210764   
      12  | 46:50.15 |  3:35.12 |    210765    |   226901   
      13  | 50:25.27 |  1:02.53 |    226902    |   231604   


Track  1

    Filename C:Hi there RIAA, What's up IFPIThe Tea Party - TRIPtych1 - Touch.wav

    Pre-gap length  0:00:02.00

    Peak level 98.5 %
    Track quality 99.9 %
    Test CRC B7811274
    Copy CRC B7811274
    Accurately ripped (confidence 17)  [474B96E9]
    Copy OK

Track  2

    Filename C:Hi there RIAA, What's up IFPIThe Tea Party - TRIPtych2 - Underground.wav

    Pre-gap length  0:00:00.57

    Peak level 93.3 %
    Track quality 100.0 %
    Test CRC E2B96486
    Copy CRC E2B96486
    Accurately ripped (confidence 16)  [B996F95C]
    Copy OK

Track  3

    Filename C:Hi there RIAA, What's up IFPIThe Tea Party - TRIPtych3 - Great Big Lie.wav

    Pre-gap length  0:00:00.41

    Peak level 93.3 %
    Track quality 100.0 %
    Test CRC DA421029
    Copy CRC DA421029
    Accurately ripped (confidence 16)  [53AC9D2C]
    Copy OK

Track  4

    Filename C:Hi there RIAA, What's up IFPIThe Tea Party - TRIPtych4 - Heaven Coming Down.wav

    Pre-gap length  0:00:01.14

    Peak level 93.3 %
    Track quality 100.0 %
    Test CRC 6DA85B9F
    Copy CRC 6DA85B9F
    Accurately ripped (confidence 16)  [75364112]
    Copy OK

Track  5

    Filename C:Hi there RIAA, What's up IFPIThe Tea Party - TRIPtych5 - The Halcyon Days.wav

    Pre-gap length  0:00:00.32

    Peak level 93.3 %
    Track quality 100.0 %
    Test CRC 7B98EAD7
    Copy CRC 7B98EAD7
    Accurately ripped (confidence 16)  [BA8F1560]
    Copy OK

Track  6

    Filename C:Hi there RIAA, What's up IFPIThe Tea Party - TRIPtych6 - The Messenger.wav

    Peak level 94.4 %
    Track quality 100.0 %
    Test CRC 7B5C1031
    Copy CRC 7B5C1031
    Accurately ripped (confidence 16)  [72A0853E]
    Copy OK

Track  7

    Filename C:Hi there RIAA, What's up IFPIThe Tea Party - TRIPtych7 - Samsara.wav

    Pre-gap length  0:00:01.23

    Peak level 93.3 %
    Track quality 100.0 %
    Test CRC AA8FA868
    Copy CRC AA8FA868
    Accurately ripped (confidence 16)  [57AAE87F]
    Copy OK

Track  8

    Filename C:Hi there RIAA, What's up IFPIThe Tea Party - TRIPtych8 - A Slight Attack.wav

    Pre-gap length  0:00:00.21

    Peak level 93.3 %
    Track quality 100.0 %
    Test CRC AC489365
    Copy CRC AC489365
    Accurately ripped (confidence 17)  [00CF884B]
    Copy OK

Track  9

    Filename C:Hi there RIAA, What's up IFPIThe Tea Party - TRIPtych9 - Taking Me Away.wav

    Pre-gap length  0:00:00.31

    Peak level 93.3 %
    Track quality 100.0 %
    Test CRC 2C7B350F
    Copy CRC 2C7B350F
    Accurately ripped (confidence 16)  [F4046314]
    Copy OK

Track 10

    Filename C:Hi there RIAA, What's up IFPIThe Tea Party - TRIPtych10 - These Living Arms.wav

    Peak level 93.3 %
    Track quality 100.0 %
    Test CRC 8BDB2D74
    Copy CRC 8BDB2D74
    Accurately ripped (confidence 16)  [D9992A10]
    Copy OK

Track 11

    Filename C:Hi there RIAA, What's up IFPIThe Tea Party - TRIPtych11 - Chimera.wav

    Pre-gap length  0:00:01.00

    Peak level 93.3 %
    Track quality 100.0 %
    Test CRC CB9203B5
    Copy CRC CB9203B5
    Accurately ripped (confidence 16)  [50A184CE]
    Copy OK

Track 12

    Filename C:Hi there RIAA, What's up IFPIThe Tea Party - TRIPtych12 - Gone.wav

    Pre-gap length  0:00:01.70

    Peak level 93.3 %
    Track quality 99.9 %
    Test CRC 51564F4E
    Copy CRC 51564F4E
    Accurately ripped (confidence 16)  [DD948D3C]
    Copy OK

Track 13

    Filename C:Hi there RIAA, What's up IFPIThe Tea Party - TRIPtych13 - (Untitled).wav

    Pre-gap length  0:00:01.69

    Peak level 5.8 %
    Track quality 100.0 %
    Test CRC 70AAF892
    Copy CRC 70AAF892
    Accurately ripped (confidence 16)  [BF845DAD]
    Copy OK


All tracks accurately ripped

No errors occurred

End of status report

Single download

Category:Rock
Main catalog

Recommended:

Teddy Wender – Timeless (2018) FLAC Greg Laswell – Through Toledo (2006) FLAC (tracks + .cue) Ray Manzarek (Ex-The Doors) & Roy Rogers – Ballads Before The Rain (2008) APE (image + .cue)

About the Author:

music