The Troggs – Cellophane (1967, 2004) FLAC (tracks + .cue) music Lossless

The Troggs - Cellophane (1967, 2004) FLAC (tracks + .cue)
Artist: The Troggs | Album: Cellophane | Released: 1967, 2004 | Label: Repertoire Records | Catalog #: REPUK 1021 | Genre: Rock, Classic Rock | Country: UK | Duration: 01:03:38

The Troggs’ third British LP was never issued in the U.S., where most of the tracks were unavailable for more than 20 years. For that reason, it was one of the more sought-after collector’s items of the late 1960s, but the record itself isn’t that great. The group followed a more subdued, soft-rock folk-psychedelic path than they had on their earlier recordings, which wasn’t necessarily a bad idea, as the hit single “Love Is All Around” (included here) proved. But the songs just weren’t that good, and the band sounded kind of half-hearted. Eight of the twelve tracks do show up on the Archeology collection, and the remaining four are dull, meaning that there’s no reason to fork out the big bucks an original copy commands unless you need everything the Troggs made.

Tracklisting:

01. Little Red Donkey (2:15)
02. Too Much Of A Good Thing (2:49)
03. Butterflies And Bees (1:56)
04. All Of The Time (2:10)
05. Seventeen (2:40)
06. Somewere My Girl Is Waiting (2:51)
07. It’s Snowing (2:56)
08. Her Evolution (2:30)
09. When Will The Rain Come (2:42)
10. My Lady (2:59)
11. Come The Day (1:55)
12. Love Is All Around (3:01)

Bonus Tracks

13. That’s What You Get Girl (2:01)
14. I Don’t Know Why (2:52)
15. Easy Loving (3:00)
16. Give Me Something (3:27)
17. Lover (2:26)
18. Come Now (2:20)
19. The Raver (2:48)
20. You (2:34)

Special Bonus

21. Carolyn (2:33)
22. Anything For You (2:37)
23. Lucinda Lee (3:07)
24. Wichita Lineman (3:05)

 Log Exact Audio Copy

Exact Audio Copy V0.99 prebeta 4 from 23. January 2008

EAC extraction logfile from 1. July 2008, 20:12

Troggs / Cellophane

Used drive  : SAMSUNG DVD-ROM SD-616E   Adapter: 1  ID: 1

Read mode               : Secure
Utilize accurate stream : Yes
Defeat audio cache      : No
Make use of C2 pointers : No

Read offset correction                      : 12
Overread into Lead-In and Lead-Out          : No
Fill up missing offset samples with silence : Yes
Delete leading and trailing silent blocks   : No
Null samples used in CRC calculations       : No
Used interface                              : Native Win32 interface for Win NT & 2000
Gap handling                                : Not detected, thus appended to previous track

Used output format              : User Defined Encoder
Selected bitrate                : 768 kBit/s
Quality                         : High
Add ID3 tag                     : No
Command line compressor         : C:Program FilesExact Audio CopyFLACFLAC.EXE
Additional command line options : -6 -V -T "ARTIST=%a" -T "TITLE=%t" -T "ALBUM=%g" -T "DATE=%y" -T "TRACKNUMBER=%n" -T "GENRE=%m" -T "COMMENT=%e" %s -o %d


TOC of the extracted CD

     Track |   Start  |  Length  | Start sector | End sector 
    ---------------------------------------------------------
        1  |  0:00.00 |  2:14.64 |         0    |    10113   
        2  |  2:14.64 |  2:48.72 |     10114    |    22785   
        3  |  5:03.61 |  1:56.35 |     22786    |    31520   
        4  |  7:00.21 |  2:10.21 |     31521    |    41291   
        5  |  9:10.42 |  2:40.00 |     41292    |    53291   
        6  | 11:50.42 |  2:51.15 |     53292    |    66131   
        7  | 14:41.57 |  2:56.15 |     66132    |    79346   
        8  | 17:37.72 |  2:30.37 |     79347    |    90633   
        9  | 20:08.34 |  2:41.73 |     90634    |   102781   
       10  | 22:50.32 |  2:59.32 |    102782    |   116238   
       11  | 25:49.64 |  1:54.54 |    116239    |   124842   
       12  | 27:44.43 |  3:00.40 |    124843    |   138382   
       13  | 30:45.08 |  2:01.27 |    138383    |   147484   
       14  | 32:46.35 |  2:52.15 |    147485    |   160399   
       15  | 35:38.50 |  3:00.30 |    160400    |   173929   
       16  | 38:39.05 |  3:27.19 |    173930    |   189473   
       17  | 42:06.24 |  2:26.33 |    189474    |   200456   
       18  | 44:32.57 |  2:20.00 |    200457    |   210956   
       19  | 46:52.57 |  2:48.09 |    210957    |   223565   
       20  | 49:40.66 |  2:34.28 |    223566    |   235143   
       21  | 52:15.19 |  2:33.21 |    235144    |   246639   
       22  | 54:48.40 |  2:37.28 |    246640    |   258442   
       23  | 57:25.68 |  3:07.05 |    258443    |   272472   
       24  | 60:32.73 |  3:05.14 |    272473    |   286361   


Track  1

     Filename C:Documents and SettingsOwnerDesktopThe Troggs - Cellophane 1968Little Red Donkey.wav

     Peak level 98.8 %
     Track quality 100.0 %
     Test CRC 94B0A2AA
     Copy CRC 94B0A2AA
     Track not present in AccurateRip database
     Copy OK

Track  2

     Filename C:Documents and SettingsOwnerDesktopThe Troggs - Cellophane 1968Too Much Of A Good Thing.wav

     Peak level 98.6 %
     Track quality 100.0 %
     Test CRC DF4D86AA
     Copy CRC DF4D86AA
     Track not present in AccurateRip database
     Copy OK

Track  3

     Filename C:Documents and SettingsOwnerDesktopThe Troggs - Cellophane 1968Butterflies And Bees.wav

     Peak level 98.8 %
     Track quality 100.0 %
     Test CRC 044097C1
     Copy CRC 044097C1
     Track not present in AccurateRip database
     Copy OK

Track  4

     Filename C:Documents and SettingsOwnerDesktopThe Troggs - Cellophane 1968All Of The Time.wav

     Peak level 98.8 %
     Track quality 100.0 %
     Test CRC 823A5B61
     Copy CRC 823A5B61
     Track not present in AccurateRip database
     Copy OK

Track  5

     Filename C:Documents and SettingsOwnerDesktopThe Troggs - Cellophane 1968Seventeen.wav

     Peak level 98.8 %
     Track quality 100.0 %
     Test CRC 12D4E1C1
     Copy CRC 12D4E1C1
     Track not present in AccurateRip database
     Copy OK

Track  6

     Filename C:Documents and SettingsOwnerDesktopThe Troggs - Cellophane 1968Somewere My Girl Is Waiting.wav

     Peak level 98.8 %
     Track quality 100.0 %
     Test CRC 3F58D548
     Copy CRC 3F58D548
     Track not present in AccurateRip database
     Copy OK

Track  7

     Filename C:Documents and SettingsOwnerDesktopThe Troggs - Cellophane 1968It's Snowing.wav

     Peak level 98.8 %
     Track quality 100.0 %
     Test CRC 8C770D03
     Copy CRC 8C770D03
     Track not present in AccurateRip database
     Copy OK

Track  8

     Filename C:Documents and SettingsOwnerDesktopThe Troggs - Cellophane 1968Her Evolution.wav

     Peak level 98.8 %
     Track quality 100.0 %
     Test CRC DC8CAA65
     Copy CRC DC8CAA65
     Track not present in AccurateRip database
     Copy OK

Track  9

     Filename C:Documents and SettingsOwnerDesktopThe Troggs - Cellophane 1968When Will The Rain Come.wav

     Peak level 98.8 %
     Track quality 100.0 %
     Test CRC 446065EE
     Copy CRC 446065EE
     Track not present in AccurateRip database
     Copy OK

Track 10

     Filename C:Documents and SettingsOwnerDesktopThe Troggs - Cellophane 1968My Lady.wav

     Peak level 98.8 %
     Track quality 100.0 %
     Test CRC CE86BB5D
     Copy CRC CE86BB5D
     Track not present in AccurateRip database
     Copy OK

Track 11

     Filename C:Documents and SettingsOwnerDesktopThe Troggs - Cellophane 1968Come The Day.wav

     Peak level 98.8 %
     Track quality 100.0 %
     Test CRC A7E5015B
     Copy CRC A7E5015B
     Track not present in AccurateRip database
     Copy OK

Track 12

     Filename C:Documents and SettingsOwnerDesktopThe Troggs - Cellophane 1968Love Is All Around.wav

     Peak level 98.8 %
     Track quality 100.0 %
     Test CRC 9992FFD3
     Copy CRC 9992FFD3
     Track not present in AccurateRip database
     Copy OK

Track 13

     Filename C:Documents and SettingsOwnerDesktopThe Troggs - Cellophane 1968That's What You Get Girl.wav

     Peak level 98.8 %
     Track quality 100.0 %
     Test CRC 92F97DC4
     Copy CRC 92F97DC4
     Track not present in AccurateRip database
     Copy OK

Track 14

     Filename C:Documents and SettingsOwnerDesktopThe Troggs - Cellophane 1968I Don't Know Why.wav

     Peak level 98.8 %
     Track quality 100.0 %
     Test CRC D2DBE3E2
     Copy CRC D2DBE3E2
     Track not present in AccurateRip database
     Copy OK

Track 15

     Filename C:Documents and SettingsOwnerDesktopThe Troggs - Cellophane 1968Easy Loving.wav

     Peak level 98.8 %
     Track quality 100.0 %
     Test CRC B4CEE7DB
     Copy CRC B4CEE7DB
     Track not present in AccurateRip database
     Copy OK

Track 16

     Filename C:Documents and SettingsOwnerDesktopThe Troggs - Cellophane 1968Give Me Something.wav

     Peak level 98.8 %
     Track quality 100.0 %
     Test CRC 02FA4768
     Copy CRC 02FA4768
     Track not present in AccurateRip database
     Copy OK

Track 17

     Filename C:Documents and SettingsOwnerDesktopThe Troggs - Cellophane 1968Lover.wav

     Peak level 98.8 %
     Track quality 99.9 %
     Test CRC 7FDC4B50
     Copy CRC 7FDC4B50
     Track not present in AccurateRip database
     Copy OK

Track 18

     Filename C:Documents and SettingsOwnerDesktopThe Troggs - Cellophane 1968Come Now.wav

     Peak level 98.8 %
     Track quality 100.0 %
     Test CRC 33F94594
     Copy CRC 33F94594
     Track not present in AccurateRip database
     Copy OK

Track 19

     Filename C:Documents and SettingsOwnerDesktopThe Troggs - Cellophane 1968The Raver.wav

     Peak level 98.8 %
     Track quality 100.0 %
     Test CRC 66D06B0D
     Copy CRC 66D06B0D
     Track not present in AccurateRip database
     Copy OK

Track 20

     Filename C:Documents and SettingsOwnerDesktopThe Troggs - Cellophane 1968You.wav

     Peak level 98.8 %
     Track quality 99.9 %
     Test CRC A6C30D62
     Copy CRC A6C30D62
     Track not present in AccurateRip database
     Copy OK

Track 21

     Filename C:Documents and SettingsOwnerDesktopThe Troggs - Cellophane 1968Carolyn.wav

     Peak level 98.8 %
     Track quality 100.0 %
     Test CRC 7DB93DDC
     Copy CRC 7DB93DDC
     Track not present in AccurateRip database
     Copy OK

Track 22

     Filename C:Documents and SettingsOwnerDesktopThe Troggs - Cellophane 1968Anything For You.wav

     Peak level 98.8 %
     Track quality 99.9 %
     Test CRC EB36DEFF
     Copy CRC EB36DEFF
     Track not present in AccurateRip database
     Copy OK

Track 23

     Filename C:Documents and SettingsOwnerDesktopThe Troggs - Cellophane 1968Lucinda Lee.wav

     Peak level 98.8 %
     Track quality 100.0 %
     Test CRC 37FD2685
     Copy CRC 37FD2685
     Track not present in AccurateRip database
     Copy OK

Track 24

     Filename C:Documents and SettingsOwnerDesktopThe Troggs - Cellophane 1968Wichita Lineman.wav

     Peak level 98.3 %
     Track quality 100.0 %
     Test CRC 1ABC64AA
     Copy CRC 1ABC64AA
     Track not present in AccurateRip database
     Copy OK


None of the tracks are present in the AccurateRip database

No errors occurred

End of status report

Single download
The Troggs – Little Red Donkey 2:15
The Troggs – Too Much Of A Good Thing 2:49
The Troggs – Butterflies And Bees 1:56
The Troggs – All Of The Time 2:10
The Troggs – Seventeen 2:40
The Troggs – Somewere My Girl Is Waiting 2:51
The Troggs – It’s Snowing 2:56
The Troggs – Her Evolution 2:30
The Troggs – When Will The Rain Come 2:42
The Troggs – My Lady 2:59
The Troggs – Come The Day 1:55
The Troggs – Love Is All Around 3:01
The Troggs – That’s What You Get Girl 2:01
The Troggs – I Don’t Know Why 2:52
The Troggs – Easy Loving 3:00
The Troggs – Give Me Something 3:27
The Troggs – Lover 2:26
The Troggs – Come Now 2:20
The Troggs – The Raver 2:48
The Troggs – You 2:34
The Troggs – Carolyn 2:33
The Troggs – Anything For You 2:37
The Troggs – Lucinda Lee 3:07
The Troggs – Wichita Lineman 3:05

Category:Rock
Main catalog

Recommended:

VA – Bob Dylan in the 80’s. Volume One (2014) FLAC (tracks + .cue) VA – Best of Pinoy Rock (1992) FLAC Don Henley – Cass County (2015) FLAC (image + .cue)

About the Author:

music