The Troggs – From Nowhere (1966, 2003) FLAC (tracks + .cue) music Lossless

The Troggs - From Nowhere (1966, 2003) FLAC (tracks + .cue)
Artist: The Troggs | Album: From Nowhere | Released: 1966, 2003 | Label: Repertoire Records | Catalog #: REPUK 1010 | Genre: Rock and Roll, Rock | Country: UK | Duration: 00:50:32

The Troggs’ debut British LP was substantially different, and distinctly inferior to, their first American long-player (Wild Thing), although eight of the songs appear on both records. The tracks unique to the British edition are all covers: “Ride Your Pony” and the obscure “The Kitty Cat Song” (both taken from Lee Dorsey), “Louie Louie,” and Chuck Berry’s “Jaguar and Thunderbird.” And none of them are so hot. “Wild Thing” is the highlight of the disc, and the rest of the set is a mixed bag, peaks being the primordial power of “From Home” and “I Just Sing,” as well “Jingle Jangle,” the first of Reg Presley’s tuneful ballads. The vaudevillian “Hi Hi Hazel,” on the other hand, is a lowlight. There’s no “Lost Girl,” “With a Girl Like You,” or “I Want You,” all of which made the U.S. Wild Thing a better counterpart to this release, although this didn’t prevent From Nowhere from rising to number six in the British charts. All of the good tracks appear on Archeology, but if you want the material anyway, it’s been paired with their second British LP, Trogglodynamite, on a single-CD reissue on BGO.

Tracklisting:

01. Wild Thing (2:37)
02. The Yella In Me (2:41)
03. I Just Sing (2:11)
04. Hi Hi Hazel (2:45)
05. Lost Girl (2:34)
06. The Jaguar And The Thunderbird (2:03)
07. Your Love (1:54)
08. Our Love Will Still Be There (3:10)
09. Jingle Jangle (2:28)
10. When I’m With You (2:26)
11. From Home (2:23)
12. Louie, Louie (3:04)
13. The Kitty Cat Song (2:14)
14. Ride Your Pony (2:27)
15. Evil (3:16)

Bonus Tracks

16. With A Girl Like You (2:08)
17. I Want You (2:15)
18. I Can’t Control Myself (3:06)
19. Gonna Make You (2:48)
20. As I Ride By (2:02)

 Log Exact Audio Copy

Exact Audio Copy V0.99 prebeta 4 from 23. January 2008

EAC extraction logfile from 30. June 2008, 20:55

Troggs / From Nowhere

Used drive  : SAMSUNG DVD-ROM SD-616E   Adapter: 1  ID: 1

Read mode               : Secure
Utilize accurate stream : Yes
Defeat audio cache      : No
Make use of C2 pointers : No

Read offset correction                      : 12
Overread into Lead-In and Lead-Out          : No
Fill up missing offset samples with silence : Yes
Delete leading and trailing silent blocks   : No
Null samples used in CRC calculations       : No
Used interface                              : Native Win32 interface for Win NT & 2000
Gap handling                                : Not detected, thus appended to previous track

Used output format              : User Defined Encoder
Selected bitrate                : 768 kBit/s
Quality                         : High
Add ID3 tag                     : No
Command line compressor         : C:Program FilesExact Audio CopyFLACFLAC.EXE
Additional command line options : -6 -V -T "ARTIST=%a" -T "TITLE=%t" -T "ALBUM=%g" -T "DATE=%y" -T "TRACKNUMBER=%n" -T "GENRE=%m" -T "COMMENT=%e" %s -o %d


TOC of the extracted CD

     Track |   Start  |  Length  | Start sector | End sector 
    ---------------------------------------------------------
        1  |  0:00.00 |  2:36.71 |         0    |    11770   
        2  |  2:36.71 |  2:40.64 |     11771    |    23834   
        3  |  5:17.60 |  2:11.11 |     23835    |    33670   
        4  |  7:28.71 |  2:45.25 |     33671    |    46070   
        5  | 10:14.21 |  2:33.54 |     46071    |    57599   
        6  | 12:48.00 |  2:03.29 |     57600    |    66853   
        7  | 14:51.29 |  1:54.13 |     66854    |    75416   
        8  | 16:45.42 |  3:10.24 |     75417    |    89690   
        9  | 19:55.66 |  2:28.01 |     89691    |   100791   
       10  | 22:23.67 |  2:25.65 |    100792    |   111731   
       11  | 24:49.57 |  2:22.67 |    111732    |   122448   
       12  | 27:12.49 |  3:03.56 |    122449    |   136229   
       13  | 30:16.30 |  2:13.43 |    136230    |   146247   
       14  | 32:29.73 |  2:26.65 |    146248    |   157262   
       15  | 34:56.63 |  3:15.56 |    157263    |   171943   
       16  | 38:12.44 |  2:07.62 |    171944    |   181530   
       17  | 40:20.31 |  2:15.23 |    181531    |   191678   
       18  | 42:35.54 |  3:05.52 |    191679    |   205605   
       19  | 45:41.31 |  2:48.19 |    205606    |   218224   
       20  | 48:29.50 |  2:02.05 |    218225    |   227379   


Track  1

     Filename C:Documents and SettingsOwnerDesktopThe Troggs - From Nowhere 1966Wild Thing.wav

     Peak level 98.8 %
     Track quality 100.0 %
     Test CRC 6DE8BFD8
     Copy CRC 6DE8BFD8
     Track not present in AccurateRip database
     Copy OK

Track  2

     Filename C:Documents and SettingsOwnerDesktopThe Troggs - From Nowhere 1966The Yella In Me.wav

     Peak level 98.8 %
     Track quality 100.0 %
     Test CRC A153FE2A
     Copy CRC A153FE2A
     Track not present in AccurateRip database
     Copy OK

Track  3

     Filename C:Documents and SettingsOwnerDesktopThe Troggs - From Nowhere 1966I Just Sing.wav

     Peak level 98.8 %
     Track quality 99.9 %
     Test CRC 80D28429
     Copy CRC 80D28429
     Track not present in AccurateRip database
     Copy OK

Track  4

     Filename C:Documents and SettingsOwnerDesktopThe Troggs - From Nowhere 1966Hi Hi Hazel.wav

     Peak level 98.8 %
     Track quality 100.0 %
     Test CRC 91874B4A
     Copy CRC 91874B4A
     Track not present in AccurateRip database
     Copy OK

Track  5

     Filename C:Documents and SettingsOwnerDesktopThe Troggs - From Nowhere 1966Lost Girl.wav

     Peak level 98.8 %
     Track quality 100.0 %
     Test CRC BBD821D2
     Copy CRC BBD821D2
     Track not present in AccurateRip database
     Copy OK

Track  6

     Filename C:Documents and SettingsOwnerDesktopThe Troggs - From Nowhere 1966The Jaguar And The Thunderbird.wav

     Peak level 98.8 %
     Track quality 100.0 %
     Test CRC 7CE6F942
     Copy CRC 7CE6F942
     Track not present in AccurateRip database
     Copy OK

Track  7

     Filename C:Documents and SettingsOwnerDesktopThe Troggs - From Nowhere 1966Your Love.wav

     Peak level 98.8 %
     Track quality 100.0 %
     Test CRC 9CAF7364
     Copy CRC 9CAF7364
     Track not present in AccurateRip database
     Copy OK

Track  8

     Filename C:Documents and SettingsOwnerDesktopThe Troggs - From Nowhere 1966Our Love Will Still Be There.wav

     Peak level 98.8 %
     Track quality 100.0 %
     Test CRC 45905860
     Copy CRC 45905860
     Track not present in AccurateRip database
     Copy OK

Track  9

     Filename C:Documents and SettingsOwnerDesktopThe Troggs - From Nowhere 1966Jingle Jangle.wav

     Peak level 98.8 %
     Track quality 100.0 %
     Test CRC 89490B1C
     Copy CRC 89490B1C
     Track not present in AccurateRip database
     Copy OK

Track 10

     Filename C:Documents and SettingsOwnerDesktopThe Troggs - From Nowhere 1966When I'm With You.wav

     Peak level 98.8 %
     Track quality 100.0 %
     Test CRC E2272351
     Copy CRC E2272351
     Track not present in AccurateRip database
     Copy OK

Track 11

     Filename C:Documents and SettingsOwnerDesktopThe Troggs - From Nowhere 1966From Home.wav

     Peak level 98.8 %
     Track quality 100.0 %
     Test CRC FD3589F9
     Copy CRC FD3589F9
     Track not present in AccurateRip database
     Copy OK

Track 12

     Filename C:Documents and SettingsOwnerDesktopThe Troggs - From Nowhere 1966Louie, Louie.wav

     Peak level 98.8 %
     Track quality 100.0 %
     Test CRC 1D6CB002
     Copy CRC 1D6CB002
     Track not present in AccurateRip database
     Copy OK

Track 13

     Filename C:Documents and SettingsOwnerDesktopThe Troggs - From Nowhere 1966The Kitty Cat Song.wav

     Peak level 98.8 %
     Track quality 100.0 %
     Test CRC BE06E25D
     Copy CRC BE06E25D
     Track not present in AccurateRip database
     Copy OK

Track 14

     Filename C:Documents and SettingsOwnerDesktopThe Troggs - From Nowhere 1966Ride Your Pony.wav

     Peak level 98.8 %
     Track quality 100.0 %
     Test CRC 23BCB049
     Copy CRC 23BCB049
     Track not present in AccurateRip database
     Copy OK

Track 15

     Filename C:Documents and SettingsOwnerDesktopThe Troggs - From Nowhere 1966Evil.wav

     Peak level 98.8 %
     Track quality 100.0 %
     Test CRC B580BB7F
     Copy CRC B580BB7F
     Track not present in AccurateRip database
     Copy OK

Track 16

     Filename C:Documents and SettingsOwnerDesktopThe Troggs - From Nowhere 1966With A Girl Like You.wav

     Peak level 98.8 %
     Track quality 99.9 %
     Test CRC C3415813
     Copy CRC C3415813
     Track not present in AccurateRip database
     Copy OK

Track 17

     Filename C:Documents and SettingsOwnerDesktopThe Troggs - From Nowhere 1966I Want You.wav

     Peak level 98.8 %
     Track quality 100.0 %
     Test CRC 7F9ED0A6
     Copy CRC 7F9ED0A6
     Track not present in AccurateRip database
     Copy OK

Track 18

     Filename C:Documents and SettingsOwnerDesktopThe Troggs - From Nowhere 1966I Can't Control Myself.wav

     Peak level 98.8 %
     Track quality 100.0 %
     Test CRC E33A5D0B
     Copy CRC E33A5D0B
     Track not present in AccurateRip database
     Copy OK

Track 19

     Filename C:Documents and SettingsOwnerDesktopThe Troggs - From Nowhere 1966Gonna Make You.wav

     Peak level 98.8 %
     Track quality 100.0 %
     Test CRC 7290E482
     Copy CRC 7290E482
     Track not present in AccurateRip database
     Copy OK

Track 20

     Filename C:Documents and SettingsOwnerDesktopThe Troggs - From Nowhere 1966As I Ride By.wav

     Peak level 98.8 %
     Track quality 100.0 %
     Test CRC 2E85DE5F
     Copy CRC 2E85DE5F
     Track not present in AccurateRip database
     Copy OK


None of the tracks are present in the AccurateRip database

No errors occurred

End of status report

Single download
The Troggs – Wild Thing 2:37
The Troggs – The Yella In Me 2:41
The Troggs – I Just Sing 2:11
The Troggs – Hi Hi Hazel 2:45
The Troggs – Lost Girl 2:34
The Troggs – The Jaguar And The Thunderbird 2:03
The Troggs – Your Love 1:54
The Troggs – Our Love Will Still Be There 3:10
The Troggs – Jingle Jangle 2:28
The Troggs – When I’m With You 2:26
The Troggs – From Home 2:23
The Troggs – Louie, Louie 3:04
The Troggs – The Kitty Cat Song 2:14
The Troggs – Ride Your Pony 2:27
The Troggs – Evil 3:16
The Troggs – With A Girl Like You 2:08
The Troggs – I Want You 2:15
The Troggs – I Can’t Control Myself 3:06
The Troggs – Gonna Make You 2:48
The Troggs – As I Ride By 2:02

Category:Rock
Main catalog

Recommended:

Anathema – Distant Satellites (2014) FLAC (image + .cue) Smokie – Strangers In Paradise (1982, 2016) FLAC (image + .cue) RPWL – A New Dawn (Live) (2017) FLAC (tracks)

About the Author:

music