The Yardbirds – Five Live Yardbirds (1964, 1999) FLAC (image + .cue) music Lossless

The Yardbirds - Five Live Yardbirds (1964, 1999) FLAC (image + .cue)
Artist: The Yardbirds | Album: Five Live Yardbirds | Released: 1964, 1999 | Label: Repertoire Records | Catalog #: REP 4775-WY | Genre: Classic Rock, Rock | Country: UK | Duration: 01:15:10

Five Live Yardbirds was the first important — indeed, essential — live album to come out of the 1960s British rock & roll boom. In terms of the performance captured and the recording quality, it was also the best such live record of the entire middle of the decade. Cut at a Marquee Club show in 1964, Five Live Yardbirds was a popular album, especially once Eric Clapton’s fame began to spread after he left the band.

Tracklisting:

01. Too Much Monkey Business (3:52)
02. I Got Love If You Want It (2:40)
03. Smokestack Lightnin’ (5:35)
04. Good Morning Little Schoolgirl (2:44)
05. Respectable (5:35)
06. Five Long Years (5:22)
07. Pretty Girl (3:00)
08. Louise (3:43)
09. I’m A Man (4:34)
10. Here ‘Tis (5:12)

Bonus Tracks

11. Smokestack Lightnin’ (bonus track) (6:50)
12. You Can’t Judge A Book By Looking At The Cover (bonus track) (2:58)
13. Let It Rock (bonus track) (2:19)
14. I Wish You Would (bonus track) (5:55)
15. Who Do You Love (bonus track) (4:13)
16. Honey In Your Hips (bonus track) (2:30)
17. I’m A Man (bonus track) (5:47)
18. Shapes Of Things (bonus track) (2:20)

 Log Exact Audio Copy

Exact Audio Copy V1.3 from 2. September 2016

EAC extraction logfile from 17. February 2018, 16:30

The Yardbirds / Five Live Yardbirds

Used drive  : TSSTcorpCD/DVDW SH-S182D   Adapter: 1  ID: 0

Read mode               : Secure
Utilize accurate stream : Yes
Defeat audio cache      : Yes
Make use of C2 pointers : No

Read offset correction                      : 6
Overread into Lead-In and Lead-Out          : No
Fill up missing offset samples with silence : Yes
Delete leading and trailing silent blocks   : No
Null samples used in CRC calculations       : Yes
Used interface                              : Native Win32 interface for Win NT & 2000

Used output format : Internal WAV Routines
Sample format      : 44.100 Hz; 16 Bit; Stereo


TOC of the extracted CD

     Track |   Start  |  Length  | Start sector | End sector 
    ---------------------------------------------------------
        1  |  0:00.00 |  3:51.67 |         0    |    17391   
        2  |  3:51.67 |  2:40.32 |     17392    |    29423   
        3  |  6:32.24 |  5:35.19 |     29424    |    54567   
        4  | 12:07.43 |  2:44.30 |     54568    |    66897   
        5  | 14:51.73 |  5:35.14 |     66898    |    92036   
        6  | 20:27.12 |  5:21.39 |     92037    |   116150   
        7  | 25:48.51 |  3:00.24 |    116151    |   129674   
        8  | 28:49.00 |  3:43.15 |    129675    |   146414   
        9  | 32:32.15 |  4:33.47 |    146415    |   166936   
       10  | 37:05.62 |  5:12.24 |    166937    |   190360   
       11  | 42:18.11 |  6:49.73 |    190361    |   221108   
       12  | 49:08.09 |  2:57.40 |    221109    |   234423   
       13  | 52:05.49 |  2:18.68 |    234424    |   244841   
       14  | 54:24.42 |  5:55.19 |    244842    |   271485   
       15  | 60:19.61 |  4:13.26 |    271486    |   290486   
       16  | 64:33.12 |  2:29.56 |    290487    |   301717   
       17  | 67:02.68 |  5:47.20 |    301718    |   327762   
       18  | 72:50.13 |  2:19.56 |    327763    |   338243   


Range status and errors

Selected range

     Filename I:22The Yardbirds - Five Live YardbirdsThe Yardbirds - Five Live Yardbirds.wav

     Peak level 98.8 %
     Extraction speed 7.8 X
     Range quality 100.0 %
     Test CRC D4B29BB4
     Copy CRC D4B29BB4
     Copy OK

No errors occurred

End of status report

---- AcoustID Plugin V1.2.0

Total fingerprints: 18


---- CUETools DB Plugin V2.1.6

[CTDB TOCID: eE1AdqAq0oJ.0LcCUFbKfkGLpR8-] found
Submit result: eE1AdqAq0oJ.0LcCUFbKfkGLpR8- has been confirmed
Track | CTDB Status
  1   | (36/36) Accurately ripped
  2   | (36/36) Accurately ripped
  3   | (36/36) Accurately ripped
  4   | (36/36) Accurately ripped
  5   | (36/36) Accurately ripped
  6   | (36/36) Accurately ripped
  7   | (36/36) Accurately ripped
  8   | (36/36) Accurately ripped
  9   | (36/36) Accurately ripped
 10   | (36/36) Accurately ripped
 11   | (36/36) Accurately ripped
 12   | (36/36) Accurately ripped
 13   | (36/36) Accurately ripped
 14   | (36/36) Accurately ripped
 15   | (36/36) Accurately ripped
 16   | (36/36) Accurately ripped
 17   | (36/36) Accurately ripped
 18   | (36/36) Accurately ripped


==== Log checksum 10B33C7D54A668D76619CDA2CAF6E9C613C23B8843A3A933FE29F808128C04DA ====

Single download
The Yardbirds – Too Much Monkey Business 3:52
The Yardbirds – I Got Love If You Want It 2:40
The Yardbirds – Smokestack Lightnin’ 5:35
The Yardbirds – Good Morning Little Schoolgirl 2:44
The Yardbirds – Respectable 5:35
The Yardbirds – Five Long Years 5:22
The Yardbirds – Pretty Girl 3:00
The Yardbirds – Louise 3:43
The Yardbirds – I’m A Man 4:34
The Yardbirds – Here ‘Tis 5:12
The Yardbirds – Smokestack Lightnin’ bonus track
The Yardbirds – You Can’t Judge A Book By Looking At The Cover bonus track
The Yardbirds – Let It Rock bonus track
The Yardbirds – I Wish You Would bonus track
The Yardbirds – Who Do You Love bonus track
The Yardbirds – Honey In Your Hips bonus track
The Yardbirds – I’m A Man bonus track
The Yardbirds – Shapes Of Things bonus track

Category:Rock
Main catalog

Recommended:

Fleetwood Mac – Rumours (Deluxe Edition) (1977-2013) FLAC (image + .cue) U.K. Subs – Subversions (2018) FLAC Razorlight – Slipway Fires (2008) FLAC (tracks+.cue)

About the Author:

music