Third World War – Third World War (1971, 1995) FLAC (tracks + .cue) music Lossless

Third World War - Third World War (1971, 1995) FLAC (tracks + .cue)
Artist: Third World War | Album: Third World War | Released: 1971, 1995 | Label: Repertoire Records, Germany | Catalog #: REP 4560-WP | Genre: Rock, Hard Rock | Country: UK | Duration: 00:39:58

Tracklisting:

01. Ascension Day (4:53)
02. M. I. 5’s Alive (8:10)
03. Teddy Teeth Goes Sailing (1:53)
04. Working Class Man (4:32)
05. Shepherds Bush Cowboy (4:40)
06. Stardom Road Part I (5:37)
07. Stardom Road Part II (3:43)
08. Get Out Of Bed You Dirty Red (1:28)
09. Preaching Violence (5:04)

 Log Exact Audio Copy

Exact Audio Copy V0.99 prebeta 4 from 23. January 2008

EAC extraction logfile from 1. March 2009, 15:01

Third World War / Third World War

Used drive : Optiarc DVD RW AD-5170A Adapter: 2 ID: 0

Read mode : Secure
Utilize accurate stream : Yes
Defeat audio cache : Yes
Make use of C2 pointers : No

Read offset correction : 48
Overread into Lead-In and Lead-Out : No
Fill up missing offset samples with silence : Yes
Delete leading and trailing silent blocks : No
Null samples used in CRC calculations : Yes
Used interface : Installed external ASPI interface
Gap handling : Appended to previous track

Used output format : User Defined Encoder
Selected bitrate : 1024 kBit/s
Quality : High
Add ID3 tag : No
Command line compressor : C:Program FilesExact Audio CopyFLACFLAC.EXE
Additional command line options : -6 -V -T "ARTIST=%a" -T "TITLE=%t" -T "ALBUM=%g" -T "DATE=%y" -T "TRACKNUMBER=%n" -T "GENRE=%m" -T "COMMENT=%e" %s -o %d

TOC of the extracted CD

Track | Start | Length | Start sector | End sector
---------------------------------------------------------
1 | 0:00.00 | 4:52.45 | 0 | 21944
2 | 4:52.45 | 8:09.47 | 21945 | 58666
3 | 13:02.17 | 1:52.63 | 58667 | 67129
4 | 14:55.05 | 4:31.67 | 67130 | 87521
5 | 19:26.72 | 4:39.65 | 87522 | 108511
6 | 24:06.62 | 5:36.38 | 108512 | 133749
7 | 29:43.25 | 3:43.22 | 133750 | 150496
8 | 33:26.47 | 1:27.53 | 150497 | 157074
9 | 34:54.25 | 5:03.50 | 157075 | 179849

Track 1

Filename H:

Single download
Third World War - Ascension Day 4:53
Third World War - M. I. 5's Alive 8:10
Third World War - Teddy Teeth Goes Sailing 1:53
Third World War - Working Class Man 4:32
Third World War - Shepherds Bush Cowboy 4:40
Third World War - Stardom Road Part I 5:37
Third World War - Stardom Road Part II 3:43
Third World War - Get Out Of Bed You Dirty Red 1:28
Third World War - Preaching Violence 5:04

Category:Rock
Main catalog

Recommended:

VA - Iconic Performances from the Monterey International Pop Festival (2017) [24bit Hi-Res] FLAC (tracks) The Beatles - The U.S. Albums Sampler (2014) FLAC Smokie - Chasing Shadows (1992) FLAC (image + .cue)

About the Author:

music