Unknown Mortal Orchestra – II (2013) FLAC (tracks + .cue) music Lossless

Unknown Mortal Orchestra - II (2013) FLAC (tracks + .cue)
Artist: Unknown Mortal Orchestra | Album: II | Released: 2013 | Label: Jagjaguwar | Catalog #: JAG232 | Genre: Lo-Fi, Psychedelic Rock, Rock | Country: New Zealand | Duration: 00:40:29

Tracklisting:

01. From The Sun (4:44)
02. Swim And Sleep (Like A Shark) (2:45)
03. So Good At Being In Trouble (3:50)
04. One At A Time (2:29)
05. The Opposite Of Afternoon (5:25)
06. No Need For A Leader (5:45)
07. Monki (7:19)
08. Dawn (1:08)
09. Faded In The Morning (4:22)
10. Secret Xtians (2:43)

 Log X Lossless Decoder

X Lossless Decoder version 20121222 (142.2)

XLD extraction logfile from 2013-01-24 11:18:06 -0600

Unknown Mortal Orchestra / II

Used drive : MATSHITA DVD-R   UJ-898 (revision HC09)
Media type : Pressed CD

Ripper mode             : XLD Secure Ripper
Disable audio cache     : OK for the drive with a cache less than 1375KiB
Make use of C2 pointers : NO
Read offset correction  : 102
Max retry count         : 100
Gap status              : Analyzed, Appended

TOC of the extracted CD
     Track |   Start  |  Length  | Start sector | End sector 
    ---------------------------------------------------------
        1  | 00:00:00 | 04:43:38 |         0    |    21262   
        2  | 04:43:38 | 02:45:17 |     21263    |    33654   
        3  | 07:28:55 | 03:50:11 |     33655    |    50915   
        4  | 11:18:66 | 02:28:39 |     50916    |    62054   
        5  | 13:47:30 | 05:25:37 |     62055    |    86466   
        6  | 19:12:67 | 05:44:38 |     86467    |   112304   
        7  | 24:57:30 | 07:18:68 |    112305    |   145222   
        8  | 32:16:23 | 01:08:03 |    145223    |   150325   
        9  | 33:24:26 | 04:21:39 |    150326    |   169939   
       10  | 37:45:65 | 02:43:25 |    169940    |   182189   

AccurateRip Summary
    Disc not found in AccurateRip DB.

All Tracks
    Album gain               : -6.55 dB
    Peak                     : 0.988617
    Statistics
        Read error                           : 0
        Jitter error (maybe fixed)           : 0
        Retry sector count                   : 0
        Damaged sector count                 : 0

Track 01
    Filename : /Users/NathanielBellamySchieber/Desktop/Desktop Cleaner/Music Library/Unknown Mortal Orchestra/II - Unknown Mortal Orchestra - FLAC/01 Unknown Mortal Orchestra - From The Sun.flac
    Pre-gap length : 00:02:00

    Track gain               : -5.58 dB
    Peak                     : 0.988586
    CRC32 hash (test run)    : E7322175
    CRC32 hash               : E7322175
    CRC32 hash (skip zero)   : D5643CEB
    AccurateRip v1 signature : 93BDA32B
    AccurateRip v2 signature : E9A2B9D8
        ->Track not present in AccurateRip database.
    Statistics
        Read error                           : 0
        Jitter error (maybe fixed)           : 0
        Retry sector count                   : 0
        Damaged sector count                 : 0

Track 02
    Filename : /Users/NathanielBellamySchieber/Desktop/Desktop Cleaner/Music Library/Unknown Mortal Orchestra/II - Unknown Mortal Orchestra - FLAC/02 Unknown Mortal Orchestra - Swim And Sleep (Like A Shark).flac
    Pre-gap length : 00:01:13

    Track gain               : -5.77 dB
    Peak                     : 0.988617
    CRC32 hash (test run)    : B2A1B52C
    CRC32 hash               : B2A1B52C
    CRC32 hash (skip zero)   : E2DEDC14
    AccurateRip v1 signature : BE85E5B6
    AccurateRip v2 signature : 4E922EA3
        ->Track not present in AccurateRip database.
    Statistics
        Read error                           : 0
        Jitter error (maybe fixed)           : 0
        Retry sector count                   : 0
        Damaged sector count                 : 0

Track 03
    Filename : /Users/NathanielBellamySchieber/Desktop/Desktop Cleaner/Music Library/Unknown Mortal Orchestra/II - Unknown Mortal Orchestra - FLAC/03 Unknown Mortal Orchestra - So Good At Being In Trouble.flac
    Pre-gap length : 00:01:74

    Track gain               : -5.77 dB
    Peak                     : 0.988586
    CRC32 hash (test run)    : FE8303CE
    CRC32 hash               : FE8303CE
    CRC32 hash (skip zero)   : 4507CDD4
    AccurateRip v1 signature : AD596C9D
    AccurateRip v2 signature : 995473E0
        ->Track not present in AccurateRip database.
    Statistics
        Read error                           : 0
        Jitter error (maybe fixed)           : 0
        Retry sector count                   : 0
        Damaged sector count                 : 0

Track 04
    Filename : /Users/NathanielBellamySchieber/Desktop/Desktop Cleaner/Music Library/Unknown Mortal Orchestra/II - Unknown Mortal Orchestra - FLAC/04 Unknown Mortal Orchestra - One At A Time.flac
    Pre-gap length : 00:01:40

    Track gain               : -7.71 dB
    Peak                     : 0.988617
    CRC32 hash (test run)    : 860269B0
    CRC32 hash               : 860269B0
    CRC32 hash (skip zero)   : 905B7192
    AccurateRip v1 signature : 0861C5C8
    AccurateRip v2 signature : 1B51CBF2
        ->Track not present in AccurateRip database.
    Statistics
        Read error                           : 0
        Jitter error (maybe fixed)           : 0
        Retry sector count                   : 0
        Damaged sector count                 : 0

Track 05
    Filename : /Users/NathanielBellamySchieber/Desktop/Desktop Cleaner/Music Library/Unknown Mortal Orchestra/II - Unknown Mortal Orchestra - FLAC/05 Unknown Mortal Orchestra - The Opposite Of Afternoon.flac
    Pre-gap length : 00:00:60

    Track gain               : -7.08 dB
    Peak                     : 0.988586
    CRC32 hash (test run)    : 0B53D387
    CRC32 hash               : 0B53D387
    CRC32 hash (skip zero)   : B410D5B5
    AccurateRip v1 signature : 99787204
    AccurateRip v2 signature : 3A84E77D
        ->Track not present in AccurateRip database.
    Statistics
        Read error                           : 0
        Jitter error (maybe fixed)           : 0
        Retry sector count                   : 0
        Damaged sector count                 : 0

Track 06
    Filename : /Users/NathanielBellamySchieber/Desktop/Desktop Cleaner/Music Library/Unknown Mortal Orchestra/II - Unknown Mortal Orchestra - FLAC/06 Unknown Mortal Orchestra - No Need For A Leader.flac
    Pre-gap length : 00:02:36

    Track gain               : -5.13 dB
    Peak                     : 0.988586
    CRC32 hash (test run)    : 63996872
    CRC32 hash               : 63996872
    CRC32 hash (skip zero)   : 4E2986BF
    AccurateRip v1 signature : 6AAF63D7
    AccurateRip v2 signature : 06484643
        ->Track not present in AccurateRip database.
    Statistics
        Read error                           : 0
        Jitter error (maybe fixed)           : 0
        Retry sector count                   : 0
        Damaged sector count                 : 0

Track 07
    Filename : /Users/NathanielBellamySchieber/Desktop/Desktop Cleaner/Music Library/Unknown Mortal Orchestra/II - Unknown Mortal Orchestra - FLAC/07 Unknown Mortal Orchestra - Monki.flac
    Pre-gap length : 00:02:44

    Track gain               : -3.96 dB
    Peak                     : 0.988586
    CRC32 hash (test run)    : 3CA80D57
    CRC32 hash               : 3CA80D57
    CRC32 hash (skip zero)   : 41C7FE0C
    AccurateRip v1 signature : 68C71244
    AccurateRip v2 signature : BF2CD543
        ->Track not present in AccurateRip database.
    Statistics
        Read error                           : 0
        Jitter error (maybe fixed)           : 0
        Retry sector count                   : 0
        Damaged sector count                 : 0

Track 08
    Filename : /Users/NathanielBellamySchieber/Desktop/Desktop Cleaner/Music Library/Unknown Mortal Orchestra/II - Unknown Mortal Orchestra - FLAC/08 Unknown Mortal Orchestra - Dawn.flac
    Pre-gap length : 00:02:69

    Track gain               : -0.40 dB
    Peak                     : 0.514832
    CRC32 hash (test run)    : CAEC6139
    CRC32 hash               : CAEC6139
    CRC32 hash (skip zero)   : 35027FB1
    AccurateRip v1 signature : D8990006
    AccurateRip v2 signature : 6C84573A
        ->Track not present in AccurateRip database.
    Statistics
        Read error                           : 0
        Jitter error (maybe fixed)           : 0
        Retry sector count                   : 0
        Damaged sector count                 : 0

Track 09
    Filename : /Users/NathanielBellamySchieber/Desktop/Desktop Cleaner/Music Library/Unknown Mortal Orchestra/II - Unknown Mortal Orchestra - FLAC/09 Unknown Mortal Orchestra - Faded In The Morning.flac

    Track gain               : -7.44 dB
    Peak                     : 0.988617
    CRC32 hash (test run)    : DA574B07
    CRC32 hash               : DA574B07
    CRC32 hash (skip zero)   : 979EDBE7
    AccurateRip v1 signature : 3942AE77
    AccurateRip v2 signature : B564C5FE
        ->Track not present in AccurateRip database.
    Statistics
        Read error                           : 0
        Jitter error (maybe fixed)           : 0
        Retry sector count                   : 0
        Damaged sector count                 : 0

Track 10
    Filename : /Users/NathanielBellamySchieber/Desktop/Desktop Cleaner/Music Library/Unknown Mortal Orchestra/II - Unknown Mortal Orchestra - FLAC/10 Unknown Mortal Orchestra - Secret Xtians.flac
    Pre-gap length : 00:01:21

    Track gain               : -5.15 dB
    Peak                     : 0.988617
    CRC32 hash (test run)    : 8EC34513
    CRC32 hash               : 8EC34513
    CRC32 hash (skip zero)   : 9408BDEE
    AccurateRip v1 signature : 1B66C70B
    AccurateRip v2 signature : F88379C4
        ->Track not present in AccurateRip database.
    Statistics
        Read error                           : 0
        Jitter error (maybe fixed)           : 0
        Retry sector count                   : 0
        Damaged sector count                 : 0

No errors occurred

End of status report 

Single download
Unknown Mortal Orchestra – From The Sun 4:44
Unknown Mortal Orchestra – Swim And Sleep Like A Shark
Unknown Mortal Orchestra – So Good At Being In Trouble 3:50
Unknown Mortal Orchestra – One At A Time 2:29
Unknown Mortal Orchestra – The Opposite Of Afternoon 5:25
Unknown Mortal Orchestra – No Need For A Leader 5:45
Unknown Mortal Orchestra – Monki 7:19
Unknown Mortal Orchestra – Dawn 1:08
Unknown Mortal Orchestra – Faded In The Morning 4:22
Unknown Mortal Orchestra – Secret Xtians 2:43
Unknown Mortal Orchestra – 2

Category:Rock
Main catalog

Recommended:

The Tea Party – Tx 20 (2017) FLAC (tracks) Camera Astralis – I Supplicanti (1998) FLAC (image + .cue) Marillion – FEAR (F*** Everyone And Run) (2016) WV (image + .cue)

About the Author:

music