Unknown Mortal Orchestra – Unknown Mortal Orchestra (2011) FLAC (tracks + .cue) music Lossless

Unknown Mortal Orchestra - Unknown Mortal Orchestra (2011) FLAC (tracks + .cue)
Artist: Unknown Mortal Orchestra | Album: Unknown Mortal Orchestra | Released: 2011 | Label: Fat Possum Records | Catalog #: FP1250-2 | Genre: Psychedelic Rock, Rock, Lo-Fi | Country: New Zealand | Duration: 00:30:09

Tracklisting:

01. FFunny FFrends (4:17)
02. Bicycle (4:45)
03. Thought Ballune (4:10)
04. Jello and Juggernauts (3:24)
05. How Can You Luv Me (3:28)
06. Nerve Damage! (2:15)
07. Little Blu House (3:01)
08. Strangers Are Strange (2:24)
09. Boy Witch (2:25)

 Log Exact Audio Copy

Exact Audio Copy V1.0 beta 2 from 29. April 2011

EAC extraction logfile from 24. June 2011, 17:32

Unknown Mortal Orchestra / Unknown Mortal Orchestra

Used drive : PLEXTOR DVDR PX-716A Adapter: 3 ID: 0

Read mode : Secure
Utilize accurate stream : Yes
Defeat audio cache : Yes
Make use of C2 pointers : No

Read offset correction : 30
Overread into Lead-In and Lead-Out : No
Fill up missing offset samples with silence : Yes
Delete leading and trailing silent blocks : No
Null samples used in CRC calculations : Yes
Used interface : Native Win32 interface for Win NT & 2000
Gap handling : Appended to previous track

Used output format : User Defined Encoder
Selected bitrate : 1024 kBit/s
Quality : High
Add ID3 tag : No
Command line compressor : C:Program FilesExact Audio CopyFlacflac.exe
Additional command line options : -8 -V -T "ARTIST=%artist%" -T "TITLE=%title%" -T "ALBUM=%albumtitle%" -T "DATE=%year%" -T "TRACKNUMBER=%tracknr%" -T "GENRE=%genre%" -T "PERFORMER=%albuminterpret%" -T "COMPOSER=%composer%" %haslyrics%--tag-from-file=LYRICS


TOC of the extracted CD

Track | Start | Length | Start sector | End sector
---------------------------------------------------------
1 | 0:00.00 | 4:16.63 | 0 | 19262
2 | 4:16.63 | 4:45.25 | 19263 | 40662
3 | 9:02.13 | 4:10.05 | 40663 | 59417
4 | 13:12.18 | 3:23.49 | 59418 | 74691
5 | 16:35.67 | 3:27.57 | 74692 | 90273
6 | 20:03.49 | 2:14.63 | 90274 | 100386
7 | 22:18.37 | 3:00.68 | 100387 | 113954
8 | 25:19.30 | 2:24.27 | 113955 | 124781
9 | 27:43.57 | 2:24.57 | 124782 | 135638


Track 1

Filename C:EACUnknown Mortal Orchestra - Unknown Mortal Orchestra (2011) [FLAC]1 - FFunny FFrends.wav

Pre-gap length 0:00:02.00

Peak level 98.8 %
Extraction speed 8.0 X
Track quality 100.0 %
Test CRC 688801D8
Copy CRC 688801D8
Track not present in AccurateRip database
Copy OK

Track 2

Filename C:EACUnknown Mortal Orchestra - Unknown Mortal Orchestra (2011) [FLAC]2 - Bicycle.wav

Peak level 98.8 %
Extraction speed 8.9 X
Track quality 100.0 %
Test CRC 2A829709
Copy CRC 2A829709
Track not present in AccurateRip database
Copy OK

Track 3

Filename C:EACUnknown Mortal Orchestra - Unknown Mortal Orchestra (2011) [FLAC]3 - Thought Ballune.wav

Peak level 98.8 %
Extraction speed 9.9 X
Track quality 100.0 %
Test CRC B084288D
Copy CRC B084288D
Track not present in AccurateRip database
Copy OK

Track 4

Filename C:EACUnknown Mortal Orchestra - Unknown Mortal Orchestra (2011) [FLAC]4 - Jello and Juggernauts.wav

Peak level 98.8 %
Extraction speed 9.4 X
Track quality 100.0 %
Test CRC 30AA07E7
Copy CRC 30AA07E7
Track not present in AccurateRip database
Copy OK

Track 5

Filename C:EACUnknown Mortal Orchestra - Unknown Mortal Orchestra (2011) [FLAC]5 - How Can You Luv Me.wav

Pre-gap length 0:00:02.20

Peak level 98.8 %
Extraction speed 11.2 X
Track quality 100.0 %
Test CRC AA867B2B
Copy CRC AA867B2B
Track not present in AccurateRip database
Copy OK

Track 6

Filename C:EACUnknown Mortal Orchestra - Unknown Mortal Orchestra (2011) [FLAC]6 - Nerve Damage!.wav

Pre-gap length 0:00:00.60

Peak level 98.8 %
Extraction speed 11.1 X
Track quality 100.0 %
Test CRC B94E0865
Copy CRC B94E0865
Track not present in AccurateRip database
Copy OK

Track 7

Filename C:EACUnknown Mortal Orchestra - Unknown Mortal Orchestra (2011) [FLAC]7 - Little Blu House.wav

Pre-gap length 0:00:01.48

Peak level 94.4 %
Extraction speed 9.9 X
Track quality 99.9 %
Test CRC 6D80C633
Copy CRC 6D80C633
Track not present in AccurateRip database
Copy OK

Track 8

Filename C:EACUnknown Mortal Orchestra - Unknown Mortal Orchestra (2011) [FLAC]8 - Strangers Are Strange.wav

Pre-gap length 0:00:01.08

Peak level 98.8 %
Extraction speed 11.7 X
Track quality 100.0 %
Test CRC 34A77EA8
Copy CRC 34A77EA8
Track not present in AccurateRip database
Copy OK

Track 9

Filename C:EACUnknown Mortal Orchestra - Unknown Mortal Orchestra (2011) [FLAC]9 - Boy Witch.wav

Pre-gap length 0:00:02.30

Peak level 98.8 %
Extraction speed 7.6 X
Track quality 99.9 %
Test CRC 7D6F63B3
Copy CRC 7D6F63B3
Track not present in AccurateRip database
Copy OK


None of the tracks are present in the AccurateRip database

No errors occurred

End of status report

==== Log checksum 6FC2E1F40D9B882F52F4D1AC7BB8A5A4E2A3F4D049FF1E84C67B6B0670657805 ====

Single download
Unknown Mortal Orchestra – jpg” alt=”Unknown Mortal Orchestra – Unknown Mortal Orchestra 2011
Unknown Mortal Orchestra – FFunny FFrends 4:17
Unknown Mortal Orchestra – Bicycle 4:45
Unknown Mortal Orchestra – Thought Ballune 4:10
Unknown Mortal Orchestra – Jello and Juggernauts 3:24
Unknown Mortal Orchestra – How Can You Luv Me 3:28
Unknown Mortal Orchestra – Nerve Damage! 2:15
Unknown Mortal Orchestra – Little Blu House 3:01
Unknown Mortal Orchestra – Strangers Are Strange 2:24
Unknown Mortal Orchestra – Boy Witch 2:25
Unknown Mortal Orchestra – April 2011
Unknown Mortal Orchestra – June 2011, 17:32
Unknown Mortal Orchestra – 00 | 4:16.63 | 0 | 19262
Unknown Mortal Orchestra – 63 | 4:45.25 | 19263 | 40662
Unknown Mortal Orchestra – 13 | 4:10.05 | 40663 | 59417
Unknown Mortal Orchestra – 18 | 3:23.49 | 59418 | 74691
Unknown Mortal Orchestra – 67 | 3:27.57 | 74692 | 90273
Unknown Mortal Orchestra – 49 | 2:14.63 | 90274 | 100386
Unknown Mortal Orchestra – 37 | 3:00.68 | 100387 | 113954
Unknown Mortal Orchestra – 30 | 2:24.27 | 113955 | 124781
Unknown Mortal Orchestra – 57 | 2:24.57 | 124782 | 135638
Unknown Mortal Orchestra – 00
Unknown Mortal Orchestra – 8 %
Unknown Mortal Orchestra – 0 %
Unknown Mortal Orchestra – 8 %
Unknown Mortal Orchestra – 0 %
Unknown Mortal Orchestra – 8 %
Unknown Mortal Orchestra – 0 %
Unknown Mortal Orchestra – 8 %
Unknown Mortal Orchestra – 0 %
Unknown Mortal Orchestra – 20
Unknown Mortal Orchestra – 8 %
Unknown Mortal Orchestra – 2 X
Unknown Mortal Orchestra – 0 %
Unknown Mortal Orchestra – 60
Unknown Mortal Orchestra – 8 %
Unknown Mortal Orchestra – 1 X
Unknown Mortal Orchestra – 0 %
Unknown Mortal Orchestra – 48
Unknown Mortal Orchestra – 4 %
Unknown Mortal Orchestra – 9 %
Unknown Mortal Orchestra – 08
Unknown Mortal Orchestra – 8 %
Unknown Mortal Orchestra – 7 X
Unknown Mortal Orchestra – 0 %
Unknown Mortal Orchestra – 30
Unknown Mortal Orchestra – 8 %
Unknown Mortal Orchestra – 9 %

Category:Rock
Main catalog

Recommended:

The Doors – London Fog 1966 (2016) FLAC (tracks + .cue) Tenacious D – The Pick Of Destiny (2006) FLAC (tracks + .cue) VA – The Original Rock Meets Classic (2014) FLAC (tracks + .cue)

About the Author:

music