Carter Burwell – The Twilight Saga: Breaking Dawn – Part 1 ( 2011) FLAC (tracks+.cue) music Lossless

Carter Burwell - The Twilight Saga: Breaking Dawn - Part 1 ( 2011) FLAC (tracks+.cue)
Artist: Carter Burwell | Album: The Twilight Saga: Breaking Dawn – Part 1 | Released: 2011 | Label: Summit Entertainment | Catalog: 7567-88248-3 | Genre: Score, Soundtrack

Tracklisting:

01. The Kingdom Where Nobody Dies [0:01:36.67]
02. Cold Feet [0:02:44.67]
03. What You See In The Mirror [0:03:04.61]
04. Wedding Nightmare [0:01:09.43]
05. Wolves On The Beach [0:02:00.65]
06. Goodbyes [0:02:28.04]
07. A Nova Vida [0:02:58.46]
08. The Threshold [0:01:25.31]
09. Pregnant [0:02:09.26]
10. Morte [0:01:36.33]
11. Honeymoon In Eclipse [0:02:21.02]
12. A Wolf Stands Up [0:03:20.02]
13. Two Man Pack [0:00:33.09]
14. Don’t Choose That [0:02:24.38]
15. O Negative [0:03:39.44]
16. Hearing The Baby [0:02:25.36]
17. Playing Wolves [0:03:17.35]
18. Let’s Start With Forever [0:01:01.03]
19. It’s Renesmee [0:02:29.47]
20. The Venom [0:01:04.31]
21. Hearts Failing [0:01:15.09]
22. Biting [0:02:25.35]
23. Jacob Imprints [0:01:16.53]
24. You Kill Her You Kill Me [0:02:14.72]
25. Bella Reborn [0:03:05.25]

 Log Exact Audio Copy

Exact Audio Copy V1.0 beta 3 from 29. August 2011

EAC extraction logfile from 9. December 2011, 14:54

Carter Burwell / The Twilight Saga: Breaking Dawn - Part 1

Used drive  : TSSTcorpCD/DVDW SH-S182M   Adapter: 0  ID: 0

Read mode               : Secure
Utilize accurate stream : Yes
Defeat audio cache      : Yes
Make use of C2 pointers : No

Read offset correction                      : 6
Overread into Lead-In and Lead-Out          : No
Fill up missing offset samples with silence : Yes
Delete leading and trailing silent blocks   : No
Null samples used in CRC calculations       : Yes
Used interface                              : Native Win32 interface for Win NT & 2000
Gap handling                                : Appended to previous track

Used output format              : User Defined Encoder
Selected bitrate                : 1024 kBit/s
Quality                         : High
Add ID3 tag                     : No
Command line compressor         : C:Program FilesExact Audio CopyFlacflac.exe
Additional command line options : -8 -V -T "ARTIST=%artist%" -T "TITLE=%title%" -T "ALBUM=%albumtitle%" -T "DATE=%year%"
-T "TRACKNUMBER=%tracknr%" -T "GENRE=%genre%" -T "PERFORMER=%albuminterpret%" -T "COMPOSER=%composer%"  %source% -o %dest%

TOC of the extracted CD

     Track |   Start  |  Length  | Start sector | End sector
    ---------------------------------------------------------
        1  |  0:00.00 |  1:36.67 |         0    |     7266
        2  |  1:36.67 |  2:44.67 |      7267    |    19633
        3  |  4:21.59 |  3:04.61 |     19634    |    33494
        4  |  7:26.45 |  1:09.43 |     33495    |    38712
        5  |  8:36.13 |  2:00.65 |     38713    |    47777
        6  | 10:37.03 |  2:28.04 |     47778    |    58881
        7  | 13:05.07 |  2:58.46 |     58882    |    72277
        8  | 16:03.53 |  1:25.31 |     72278    |    78683
        9  | 17:29.09 |  2:09.26 |     78684    |    88384
       10  | 19:38.35 |  1:36.33 |     88385    |    95617
       11  | 21:14.68 |  2:21.02 |     95618    |   106194
       12  | 23:35.70 |  3:20.02 |    106195    |   121196
       13  | 26:55.72 |  0:33.09 |    121197    |   123680
       14  | 27:29.06 |  2:24.38 |    123681    |   134518
       15  | 29:53.44 |  3:39.44 |    134519    |   150987
       16  | 33:33.13 |  2:25.36 |    150988    |   161898
       17  | 35:58.49 |  3:17.35 |    161899    |   176708
       18  | 39:16.09 |  1:01.03 |    176709    |   181286
       19  | 40:17.12 |  2:29.47 |    181287    |   192508
       20  | 42:46.59 |  1:04.31 |    192509    |   197339
       21  | 43:51.15 |  1:15.09 |    197340    |   202973
       22  | 45:06.24 |  2:25.35 |    202974    |   213883
       23  | 47:31.59 |  1:16.53 |    213884    |   219636
       24  | 48:48.37 |  2:14.72 |    219637    |   229758
       25  | 51:03.34 |  3:05.25 |    229759    |   243658

Track  1

     Filename C:Music1 - The Kingdom Where Nobody Dies.wav

     Pre-gap length  0:00:02.00

     Peak level 96.2 %
     Extraction speed 3.3 X
     Track quality 100.0 %
     Test CRC C47A1818
     Copy CRC C47A1818
     Track not present in AccurateRip database
     Copy OK

Track  2

     Filename C:Music2 - Cold Feet.wav

     Peak level 85.9 %
     Extraction speed 4.0 X
     Track quality 100.0 %
     Test CRC CE51EB16
     Copy CRC CE51EB16
     Track not present in AccurateRip database
     Copy OK

Track  3

     Filename C:Music3 - What You See In The Mirror.wav

     Peak level 94.9 %
     Extraction speed 4.4 X
     Track quality 100.0 %
     Test CRC 2AA6CFE4
     Copy CRC 2AA6CFE4
     Track not present in AccurateRip database
     Copy OK

Track  4

     Filename C:Music4 - Wedding Nightmare.wav

     Peak level 92.1 %
     Extraction speed 3.6 X
     Track quality 100.0 %
     Test CRC AF9E3987
     Copy CRC AF9E3987
     Track not present in AccurateRip database
     Copy OK

Track  5

     Filename C:Music5 - Wolves On The Beach.wav

     Pre-gap length  0:00:00.30

     Peak level 91.3 %
     Extraction speed 4.3 X
     Track quality 100.0 %
     Test CRC 33B4597B
     Copy CRC 33B4597B
     Track not present in AccurateRip database
     Copy OK

Track  6

     Filename C:Music6 - Goodbyes.wav

     Pre-gap length  0:00:01.23

     Peak level 80.3 %
     Extraction speed 4.0 X
     Track quality 99.9 %
     Test CRC D3DEC54E
     Copy CRC D3DEC54E
     Track not present in AccurateRip database
     Copy OK

Track  7

     Filename C:Music7 - A Nova Vida.wav

     Pre-gap length  0:00:01.25

     Peak level 87.9 %
     Extraction speed 4.4 X
     Track quality 99.9 %
     Test CRC A52DA89D
     Copy CRC A52DA89D
     Track not present in AccurateRip database
     Copy OK

Track  8

     Filename C:Music8 - The Threshold.wav

     Pre-gap length  0:00:00.70

     Peak level 75.5 %
     Extraction speed 4.5 X
     Track quality 100.0 %
     Test CRC 8DB881D0
     Copy CRC 8DB881D0
     Track not present in AccurateRip database
     Copy OK

Track  9

     Filename C:Music9 - Pregnant.wav

     Peak level 100.0 %
     Extraction speed 5.1 X
     Track quality 100.0 %
     Test CRC 4A6A05ED
     Copy CRC 4A6A05ED
     Track not present in AccurateRip database
     Copy OK

Track 10

     Filename C:Music10 - Morte.wav

     Peak level 93.5 %
     Extraction speed 4.9 X
     Track quality 100.0 %
     Test CRC E02EE33F
     Copy CRC E02EE33F
     Track not present in AccurateRip database
     Copy OK

Track 11

     Filename C:Music11 - Honeymoon In Eclipse.wav

     Peak level 95.4 %
     Extraction speed 5.5 X
     Track quality 100.0 %
     Test CRC 29272B8D
     Copy CRC 29272B8D
     Track not present in AccurateRip database
     Copy OK

Track 12

     Filename C:Music12 - A Wolf Stands Up.wav

     Peak level 100.0 %
     Extraction speed 6.1 X
     Track quality 100.0 %
     Test CRC BDE77B63
     Copy CRC BDE77B63
     Track not present in AccurateRip database
     Copy OK

Track 13

     Filename C:Music13 - Two Man Pack.wav

     Peak level 54.1 %
     Extraction speed 3.4 X
     Track quality 100.0 %
     Test CRC 1F17A53A
     Copy CRC 1F17A53A
     Track not present in AccurateRip database
     Copy OK

Track 14

     Filename C:Music14 - Don't Choose That.wav

     Pre-gap length  0:00:00.42

     Peak level 95.3 %
     Extraction speed 5.9 X
     Track quality 100.0 %
     Test CRC 97D101F6
     Copy CRC 97D101F6
     Track not present in AccurateRip database
     Copy OK

Track 15

     Filename C:Music15 - O Negative.wav

     Pre-gap length  0:00:00.61

     Peak level 100.0 %
     Extraction speed 6.6 X
     Track quality 100.0 %
     Test CRC E113793F
     Copy CRC E113793F
     Track not present in AccurateRip database
     Copy OK

Track 16

     Filename C:Music16 - Hearing The Baby.wav

     Pre-gap length  0:00:02.15

     Peak level 72.7 %
     Extraction speed 6.3 X
     Track quality 100.0 %
     Test CRC D5ED6ED5
     Copy CRC D5ED6ED5
     Track not present in AccurateRip database
     Copy OK

Track 17

     Filename C:Music17 - Playing Wolves.wav

     Peak level 100.0 %
     Extraction speed 6.8 X
     Track quality 100.0 %
     Test CRC FDE70FDD
     Copy CRC FDE70FDD
     Track not present in AccurateRip database
     Copy OK

Track 18

     Filename C:Music18 - Let's Start With Forever.wav

     Pre-gap length  0:00:02.15

     Peak level 57.3 %
     Extraction speed 3.7 X
     Track quality 99.8 %
     Test CRC 7115733F
     Copy CRC 7115733F
     Track not present in AccurateRip database
     Copy OK

Track 19

     Filename C:Music19 - It's Renesmee.wav

     Pre-gap length  0:00:01.19

     Peak level 99.8 %
     Extraction speed 6.7 X
     Track quality 100.0 %
     Test CRC E62A8583
     Copy CRC E62A8583
     Track not present in AccurateRip database
     Copy OK

Track 20

     Filename C:Music20 - The Venom.wav

     Pre-gap length  0:00:00.17

     Peak level 96.0 %
     Extraction speed 3.7 X
     Track quality 99.8 %
     Test CRC F2336FF1
     Copy CRC F2336FF1
     Track not present in AccurateRip database
     Copy OK

Track 21

     Filename C:Music21 - Hearts Failing.wav

     Peak level 95.4 %
     Extraction speed 5.4 X
     Track quality 100.0 %
     Test CRC 15CC09B4
     Copy CRC 15CC09B4
     Track not present in AccurateRip database
     Copy OK

Track 22

     Filename C:Music22 - Biting.wav

     Pre-gap length  0:00:01.13

     Peak level 96.5 %
     Extraction speed 6.9 X
     Track quality 100.0 %
     Test CRC AB194718
     Copy CRC AB194718
     Track not present in AccurateRip database
     Copy OK

Track 23

     Filename C:Music23 - Jacob Imprints.wav

     Peak level 84.0 %
     Extraction speed 4.4 X
     Track quality 99.8 %
     Test CRC 0568A869
     Copy CRC 0568A869
     Track not present in AccurateRip database
     Copy OK

Track 24

     Filename C:Music24 - You Kill Her You Kill Me.wav

     Pre-gap length  0:00:03.22

     Peak level 97.7 %
     Extraction speed 6.9 X
     Track quality 100.0 %
     Test CRC EBDC65D9
     Copy CRC EBDC65D9
     Track not present in AccurateRip database
     Copy OK

Track 25

     Filename C:Music25 - Bella Reborn.wav

     Pre-gap length  0:00:03.61

     Peak level 95.6 %
     Extraction speed 7.6 X
     Track quality 100.0 %
     Test CRC BD917512
     Copy CRC BD917512
     Track not present in AccurateRip database
     Copy OK

None of the tracks are present in the AccurateRip database

No errors occurred

End of status report

==== Log checksum E9FA63999534C2368F86F3ACD84A827FDFC8007451A08B472ED7E489E1157E27 ====

Single download
Carter Burwell – The Kingdom Where Nobody Dies 0:01:36.67
Carter Burwell – Cold Feet 0:02:44.67
Carter Burwell – What You See In The Mirror 0:03:04.61
Carter Burwell – Wedding Nightmare 0:01:09.43
Carter Burwell – Wolves On The Beach 0:02:00.65
Carter Burwell – Goodbyes 0:02:28.04
Carter Burwell – A Nova Vida 0:02:58.46
Carter Burwell – The Threshold 0:01:25.31
Carter Burwell – Pregnant 0:02:09.26
Carter Burwell – Morte 0:01:36.33
Carter Burwell – Honeymoon In Eclipse 0:02:21.02
Carter Burwell – A Wolf Stands Up 0:03:20.02
Carter Burwell – Two Man Pack 0:00:33.09
Carter Burwell – Don’t Choose That 0:02:24.38
Carter Burwell – O Negative 0:03:39.44
Carter Burwell – Hearing The Baby 0:02:25.36
Carter Burwell – Playing Wolves 0:03:17.35
Carter Burwell – Let’s Start With Forever 0:01:01.03
Carter Burwell – It’s Renesmee 0:02:29.47
Carter Burwell – The Venom 0:01:04.31
Carter Burwell – Hearts Failing 0:01:15.09
Carter Burwell – Biting 0:02:25.35
Carter Burwell – Jacob Imprints 0:01:16.53
Carter Burwell – You Kill Her You Kill Me 0:02:14.72
Carter Burwell – Bella Reborn 0:03:05.25

Category:Soundtrack
Main catalog

Recommended:

VA – L.A. Noire Official Soundtrack (by Andrew Hale, Simon Hale, Fly) (2011) FLAC (tracks+.cue) Joseph Bishara – more music from the Further (2018) FLAC Mark Mothersbaugh – Hotel Transylvania: Score From The Motion Pictures (2018) (24bit Hi-Res) FLAC

About the Author:

music