Alan Parsons – The Time Machine (1999) FLAC (tracks + .cue) music Lossless

Alan Parsons - The Time Machine (1999) FLAC (tracks + .cue)
Artist: Alan Parsons | Album: The Time Machine | Released: 1999 | Label: Artful Records | Catalog #: ARTFUL CD 28 | Genre: Synth Pop, Prog Rock | Country: UK | Duration: 00:55:48

Tracklisting:

01. The Time Machine, Part 1 (4:55)
02. Temporalia (1:01)
03. Out of the Blue (4:55)
04. Call Up (5:14)
05. Ignorance Is Bliss (6:46)
06. Rubber Universe (3:52)
07. The Call of the Wild (5:23)
08. No Future in the Past (4:46)
09. Press Rewind (4:21)
10. The Very Last Time (3:42)
11. Far Ago and Long Away (5:15)
12. The Time Machine, Part 2 (2:15)
13. The Time Machine (Dr. Evil edit) (3:24)

 Log Exact Audio Copy

Exact Audio Copy V1.3 from 2. September 2016

EAC extraction logfile from 31. October 2018, 17:11

Alan Parsons / The Time Machine

Used drive  : TSSTcorpCD/DVDW SH-S182D   Adapter: 1  ID: 0

Read mode               : Secure
Utilize accurate stream : Yes
Defeat audio cache      : Yes
Make use of C2 pointers : No

Read offset correction                      : 6
Overread into Lead-In and Lead-Out          : No
Fill up missing offset samples with silence : Yes
Delete leading and trailing silent blocks   : No
Null samples used in CRC calculations       : Yes
Used interface                              : Native Win32 interface for Win NT & 2000
Gap handling                                : Appended to previous track

Used output format              : User Defined Encoder
Selected bitrate                : 896 kBit/s
Quality                         : High
Add ID3 tag                     : No
Command line compressor         : C:Program Files (x86)Exact Audio CopyFlacflac.exe
Additional command line options : -8 -V -T "ARTIST=%artist%" -T "TITLE=%title%" -T "ALBUM=%albumtitle%" -T "DATE=%year%" -T "TRACKNUMBER=%tracknr%" -T "TOTALTRACKS=%numtracks%" -T "DISCNUMBER=%cdnumber%" -T "TOTALDISCS=%totalcds%" -T "PERFORMER=%albuminterpret%" -T "COMPOSER=%composer%" -T "GENRE=%genre%" -T "ALBUMARTIST=%albumartist%" -T "ALBUM ARTIST=%albumartist%" -T "COMMENT=Rip by waddaw" %source%


TOC of the extracted CD

     Track |   Start  |  Length  | Start sector | End sector 
    ---------------------------------------------------------
        1  |  0:00.00 |  4:54.47 |         0    |    22096   
        2  |  4:54.47 |  1:00.58 |     22097    |    26654   
        3  |  5:55.30 |  4:54.57 |     26655    |    48761   
        4  | 10:50.12 |  5:13.70 |     48762    |    72306   
        5  | 16:04.07 |  6:45.58 |     72307    |   102739   
        6  | 22:49.65 |  3:52.15 |    102740    |   120154   
        7  | 26:42.05 |  5:22.45 |    120155    |   144349   
        8  | 32:04.50 |  4:46.17 |    144350    |   165816   
        9  | 36:50.67 |  4:20.63 |    165817    |   185379   
       10  | 41:11.55 |  3:42.07 |    185380    |   202036   
       11  | 44:53.62 |  5:15.33 |    202037    |   225694   
       12  | 50:09.20 |  2:14.50 |    225695    |   235794   
       13  | 52:23.70 |  3:23.62 |    235795    |   251081   


Track  1

     Filename K:Alan Parsons - 1999 - The Time Machine [FLAC CD]1 - The Time Machine, Part 1.wav

     Pre-gap length  0:00:02.00

     Peak level 98.0 %
     Extraction speed 4.9 X
     Track quality 100.0 %
     Test CRC A544DF29
     Copy CRC A544DF29
     Accurately ripped (confidence 12)  [6C01B54D]  (AR v2)
     Copy OK

Track  2

     Filename K:Alan Parsons - 1999 - The Time Machine [FLAC CD]2 - Temporalia.wav

     Peak level 42.7 %
     Extraction speed 3.5 X
     Track quality 100.0 %
     Test CRC E47C7116
     Copy CRC E47C7116
     Accurately ripped (confidence 12)  [5632973A]  (AR v2)
     Copy OK

Track  3

     Filename K:Alan Parsons - 1999 - The Time Machine [FLAC CD]3 - Out of the Blue.wav

     Peak level 98.3 %
     Extraction speed 5.5 X
     Track quality 100.0 %
     Test CRC D8F5E167
     Copy CRC D8F5E167
     Accurately ripped (confidence 12)  [C400BD42]  (AR v2)
     Copy OK

Track  4

     Filename K:Alan Parsons - 1999 - The Time Machine [FLAC CD]4 - Call Up.wav

     Peak level 98.0 %
     Extraction speed 6.1 X
     Track quality 100.0 %
     Test CRC 176E9A05
     Copy CRC 176E9A05
     Accurately ripped (confidence 12)  [35932115]  (AR v2)
     Copy OK

Track  5

     Filename K:Alan Parsons - 1999 - The Time Machine [FLAC CD]5 - Ignorance Is Bliss.wav

     Peak level 98.0 %
     Extraction speed 6.8 X
     Track quality 100.0 %
     Test CRC 917F35B0
     Copy CRC 917F35B0
     Accurately ripped (confidence 12)  [9BAEE3D8]  (AR v2)
     Copy OK

Track  6

     Filename K:Alan Parsons - 1999 - The Time Machine [FLAC CD]6 - Rubber Universe.wav

     Peak level 98.3 %
     Extraction speed 6.7 X
     Track quality 100.0 %
     Test CRC B4F25701
     Copy CRC B4F25701
     Accurately ripped (confidence 12)  [0F28F4FA]  (AR v2)
     Copy OK

Track  7

     Filename K:Alan Parsons - 1999 - The Time Machine [FLAC CD]7 - The Call of the Wild.wav

     Peak level 98.0 %
     Extraction speed 7.3 X
     Track quality 100.0 %
     Test CRC 8B250B43
     Copy CRC 8B250B43
     Accurately ripped (confidence 12)  [07160BD8]  (AR v2)
     Copy OK

Track  8

     Filename K:Alan Parsons - 1999 - The Time Machine [FLAC CD]8 - No Future in the Past.wav

     Peak level 98.0 %
     Extraction speed 7.6 X
     Track quality 100.0 %
     Test CRC 83084265
     Copy CRC 83084265
     Accurately ripped (confidence 12)  [BA80A035]  (AR v2)
     Copy OK

Track  9

     Filename K:Alan Parsons - 1999 - The Time Machine [FLAC CD]9 - Press Rewind.wav

     Peak level 98.1 %
     Extraction speed 7.6 X
     Track quality 100.0 %
     Test CRC F9B379B0
     Copy CRC F9B379B0
     Accurately ripped (confidence 12)  [EED4B32C]  (AR v2)
     Copy OK

Track 10

     Filename K:Alan Parsons - 1999 - The Time Machine [FLAC CD]10 - The Very Last Time.wav

     Peak level 98.0 %
     Extraction speed 6.7 X
     Track quality 99.9 %
     Test CRC 2070CD51
     Copy CRC 2070CD51
     Accurately ripped (confidence 12)  [8C6B165A]  (AR v2)
     Copy OK

Track 11

     Filename K:Alan Parsons - 1999 - The Time Machine [FLAC CD]11 - Far Ago and Long Away.wav

     Peak level 86.5 %
     Extraction speed 8.3 X
     Track quality 100.0 %
     Test CRC E29CBE72
     Copy CRC E29CBE72
     Accurately ripped (confidence 12)  [B3C003E8]  (AR v2)
     Copy OK

Track 12

     Filename K:Alan Parsons - 1999 - The Time Machine [FLAC CD]12 - The Time Machine, Part 2.wav

     Peak level 98.0 %
     Extraction speed 7.4 X
     Track quality 100.0 %
     Test CRC F80CD318
     Copy CRC F80CD318
     Accurately ripped (confidence 12)  [A2B40BB5]  (AR v2)
     Copy OK

Track 13

     Filename K:Alan Parsons - 1999 - The Time Machine [FLAC CD]13 - The Time Machine (Dr. Evil edit).wav

     Pre-gap length  0:00:27.65

     Peak level 98.7 %
     Extraction speed 7.2 X
     Track quality 99.9 %
     Test CRC 1A4DF8C4
     Copy CRC 1A4DF8C4
     Accurately ripped (confidence 12)  [D0CBA9F7]  (AR v2)
     Copy OK


All tracks accurately ripped

No errors occurred

End of status report

---- CUETools DB Plugin V2.1.6

[CTDB TOCID: NuTHCfLjsV8Y6uT_e7MJj3UQM1E-] found
Submit result: NuTHCfLjsV8Y6uT_e7MJj3UQM1E- has been confirmed
Track | CTDB Status
  1   | (11/11) Accurately ripped
  2   | (11/11) Accurately ripped
  3   | (11/11) Accurately ripped
  4   | (11/11) Accurately ripped
  5   | (11/11) Accurately ripped
  6   | (11/11) Accurately ripped
  7   | (10/11) Accurately ripped
  8   | (10/11) Accurately ripped
  9   | (11/11) Accurately ripped
 10   | (11/11) Accurately ripped
 11   | (11/11) Accurately ripped
 12   | (10/11) Accurately ripped
 13   | (11/11) Accurately ripped


==== Log checksum D899DC1518AE116A2724A256D2D7B4DCD5A05B248C59AC68EB0DE7607B3D0E90 ====

Single download
Alan Parsons – The Time Machine, Part 1 4:55
Alan Parsons – Temporalia 1:01
Alan Parsons – Out of the Blue 4:55
Alan Parsons – Call Up 5:14
Alan Parsons – Ignorance Is Bliss 6:46
Alan Parsons – Rubber Universe 3:52
Alan Parsons – The Call of the Wild 5:23
Alan Parsons – No Future in the Past 4:46
Alan Parsons – Press Rewind 4:21
Alan Parsons – The Very Last Time 3:42
Alan Parsons – Far Ago and Long Away 5:15
Alan Parsons – The Time Machine, Part 2 2:15
Alan Parsons – The Time Machine Dr. Evil edit

Category:Synth Pop
Main catalog

Recommended:

Visage – Fade To GreyThe Best Of (2013) FLAC (image + .cue) Les Anges De La Nuit – Vanity Will Perish (2015) FLAC (image+.cue) Lost Reality – Fleeting Awareness (2015) FLAC (image + .cue)

About the Author:

music