Apsurde – Inglorious Heroes (2018) FLAC (image + .cue) music Lossless

Apsurde - Inglorious Heroes (2018) FLAC (image + .cue)
Artist: Apsurde | Album: Inglorious Heroes | Released: 2018 | Label: ScentAir Records | Catalog #: SA111 | Genre: Synth Pop | Country: Hungary | Duration: 00:42:02

Tracklisting:

01. Intro – The everyday man’s responsibility in the birth of the atomic bomb… [3:16]
02. My Lie.f [4:49]
03. Under The Moon [03:20]
04. SAVEyou [3:34]
05. See Me Coming [4:34]
06. Blade [1:32]
07. I’m In [3:16]
08. Going On [4:25]
09. Endless Race [3:23]
10. Prophet [1:07]
11. See Me Coming (in 1984) [3:47]
12. Why? [4:54]

 Log Exact Audio Copy

Exact Audio Copy V1.3 from 2. September 2016

EAC extraction logfile from 27. July 2018, 23:54

Apsürde / Inglourious Heroes

Used drive  : PLEXTOR BD-R  PX-B950SA   Adapter: 5  ID: 0

Read mode               : Secure
Utilize accurate stream : Yes
Defeat audio cache      : Yes
Make use of C2 pointers : No

Read offset correction                      : 6
Overread into Lead-In and Lead-Out          : No
Fill up missing offset samples with silence : Yes
Delete leading and trailing silent blocks   : No
Null samples used in CRC calculations       : Yes
Used interface                              : Installed external ASPI interface

Used output format              : User Defined Encoder
Selected bitrate                : 896 kBit/s
Quality                         : High
Add ID3 tag                     : No
Command line compressor         : C:Program FilesFLACflac.exe
Additional command line options : -V -8 -T "COMMENT=ripped by DmXpert special for new-team.org" -T "Date=%year%" -T "Genre=%genre%" %source%


TOC of the extracted CD

     Track |   Start  |  Length  | Start sector | End sector 
    ---------------------------------------------------------
        1  |  0:00.00 |  3:18.60 |         0    |    14909   
        2  |  3:18.60 |  4:49.74 |     14910    |    36658   
        3  |  8:08.59 |  3:20.00 |     36659    |    51658   
        4  | 11:28.59 |  3:34.10 |     51659    |    67718   
        5  | 15:02.69 |  4:34.65 |     67719    |    88333   
        6  | 19:37.59 |  1:32.71 |     88334    |    95304   
        7  | 21:10.55 |  3:16.03 |     95305    |   110007   
        8  | 24:26.58 |  4:25.19 |    110008    |   129901   
        9  | 28:52.02 |  3:23.07 |    129902    |   145133   
       10  | 32:15.09 |  1:07.05 |    145134    |   150163   
       11  | 33:22.14 |  3:47.44 |    150164    |   167232   
       12  | 37:09.58 |  4:52.29 |    167233    |   189161   


Range status and errors

Selected range

     Filename Y:DmXpert for new-team.orgApsurde - Inglourious Heroes (2018)(# SA099)Apsurde - Inglourious Heroes.wav

     Peak level 100.0 %
     Extraction speed 7.4 X
     Range quality 100.0 %
     Test CRC FFB4725A
     Copy CRC FFB4725A
     Copy OK

No errors occurred

 
AccurateRip summary
 
Track  1  not present in database
Track  2  not present in database
Track  3  not present in database
Track  4  not present in database
Track  5  not present in database
Track  6  not present in database
Track  7  not present in database
Track  8  not present in database
Track  9  not present in database
Track 10  not present in database
Track 11  not present in database
Track 12  not present in database
 
None of the tracks are present in the AccurateRip database

End of status report

==== Log checksum 6DE61B65B3DF19BD8ED19AF8ED2ABBF637F2EFC0B13304B294056126A37389ED ====

Single download
Apsurde – Intro – The everyday man’s responsibility in the birth of the atomic bomb… 3:16
Apsurde – My Lie.f 4:49
Apsurde – Under The Moon 03:20
Apsurde – SAVEyou 3:34
Apsurde – See Me Coming 4:34
Apsurde – Blade 1:32
Apsurde – I’m In 3:16
Apsurde – Going On 4:25
Apsurde – Endless Race 3:23
Apsurde – Prophet 1:07
Apsurde – See Me Coming in 1984
Apsurde – Why? 4:54

Category:Synth Pop
Main catalog

Recommended:

Boytronic – Jewel (2017) FLAC (image + .cue) VA – The Rise Of The Synths (2017) FLAC (tracks) Grace Jones – Island Life (1985, 2000) FLAC (image + .cue)

About the Author:

music