Boris Zhivago – Memories (2018) FLAC (tracks + .cue) music Lossless

Boris Zhivago - Memories (2018) FLAC (tracks + .cue)
Artist: Boris Zhivago | Album: Memories | Released: 2018 | Label: SP Records | Catalog #: SP 0034 | Genre: Synth Pop, Italo-Disco, Hi NRG | Country: Neatherlands | Duration: 01:18:11

Tracklisting:

01. Memoires (5:29)
02. Love Is A Memory Away (7:56)
03. Russian Fantasy (5:25)
04. The Girl That Saved My Life (7:02)
05. One More Night With You (8:37)
06. Don’t Look Back (5:46)
07. Come With Me (4:15)
08. Adagio For Love (4:48)
09. Sovjet D’Amour (5:09)
10. That Was Yesterday (7:19)
11. In Your Eyes (6:21)
12. Lady Of My Fantasy (5:50)
13. Never Too Late (4:16)

 Log Exact Audio Copy

Exact Audio Copy V1.3 from 2. September 2016

EAC extraction logfile from 12. March 2018, 20:35

Boris Zhivago / Memories

Used drive  : PLEXTOR CD-ROM PX-54TA   Adapter: 1  ID: 1

Read mode               : Secure
Utilize accurate stream : Yes
Defeat audio cache      : Yes
Make use of C2 pointers : No

Read offset correction                      : 12
Overread into Lead-In and Lead-Out          : No
Fill up missing offset samples with silence : Yes
Delete leading and trailing silent blocks   : No
Null samples used in CRC calculations       : Yes
Used interface                              : Native Win32 interface for Win NT & 2000
Gap handling                                : Appended to previous track

Used output format              : User Defined Encoder
Selected bitrate                : 1024 kBit/s
Quality                         : High
Add ID3 tag                     : No
Command line compressor         : C:Program Files (x86)Exact Audio CopyFlacflac-1.3.2-winflac-1.3.2-winwin64flac.exe
Additional command line options : -V -6 -T "COMMENT=ripped by Krevetka1972 special for new-team.org" -T "ARTIST=%artist%" -T "TITLE=%title%" -T "ALBUM=%albumtitle%" -T "DATE=%year%" -T "TRACKNUMBER=%tracknr%" -T "GENRE=%genre%" -T "ALBUMARTIST=%albuminterpret%" %source% -o %dest%


TOC of the extracted CD

     Track |   Start  |  Length  | Start sector | End sector 
    ---------------------------------------------------------
        1  |  0:00.00 |  5:28.60 |         0    |    24659   
        2  |  5:28.60 |  7:55.53 |     24660    |    60337   
        3  | 13:24.38 |  5:24.62 |     60338    |    84699   
        4  | 18:49.25 |  7:02.17 |     84700    |   116366   
        5  | 25:51.42 |  8:36.55 |    116367    |   155121   
        6  | 34:28.22 |  5:46.00 |    155122    |   181071   
        7  | 40:14.22 |  4:15.00 |    181072    |   200196   
        8  | 44:29.22 |  4:48.00 |    200197    |   221796   
        9  | 49:17.22 |  5:09.11 |    221797    |   244982   
       10  | 54:26.33 |  7:18.64 |    244983    |   277896   
       11  | 61:45.22 |  6:20.52 |    277897    |   306448   
       12  | 68:05.74 |  5:49.62 |    306449    |   332685   
       13  | 73:55.61 |  4:16.00 |    332686    |   351885   


Track  1

     Filename G:Boris ZhivagoBoris Zhivago - 2018 - Memories (SP Records # SP 0034)1. Boris Zhivago - Memoires.wav

     Pre-gap length  0:00:02.00

     Peak level 77.8 %
     Extraction speed 4.2 X
     Track quality 100.0 %
     Test CRC 29A6FF98
     Copy CRC 29A6FF98
     Track not present in AccurateRip database
     Copy OK

Track  2

     Filename G:Boris ZhivagoBoris Zhivago - 2018 - Memories (SP Records # SP 0034)2. Boris Zhivago - Love Is A Memory Away.wav

     Peak level 73.0 %
     Extraction speed 5.0 X
     Track quality 100.0 %
     Test CRC 8A49E23E
     Copy CRC 8A49E23E
     Track not present in AccurateRip database
     Copy OK

Track  3

     Filename G:Boris ZhivagoBoris Zhivago - 2018 - Memories (SP Records # SP 0034)3. Boris Zhivago - Russian Fantasy.wav

     Peak level 79.5 %
     Extraction speed 5.4 X
     Track quality 100.0 %
     Test CRC 107FABFC
     Copy CRC 107FABFC
     Track not present in AccurateRip database
     Copy OK

Track  4

     Filename G:Boris ZhivagoBoris Zhivago - 2018 - Memories (SP Records # SP 0034)4. Boris Zhivago - The Girl That Saved My Life.wav

     Peak level 81.2 %
     Extraction speed 6.0 X
     Track quality 100.0 %
     Test CRC 20FA1DB1
     Copy CRC 20FA1DB1
     Track not present in AccurateRip database
     Copy OK

Track  5

     Filename G:Boris ZhivagoBoris Zhivago - 2018 - Memories (SP Records # SP 0034)5. Boris Zhivago - One More Night With You.wav

     Peak level 80.3 %
     Extraction speed 6.6 X
     Track quality 100.0 %
     Test CRC 174A7F4E
     Copy CRC 174A7F4E
     Track not present in AccurateRip database
     Copy OK

Track  6

     Filename G:Boris ZhivagoBoris Zhivago - 2018 - Memories (SP Records # SP 0034)6. Boris Zhivago - Don't Look Back.wav

     Peak level 77.8 %
     Extraction speed 6.8 X
     Track quality 100.0 %
     Test CRC 20A05757
     Copy CRC 20A05757
     Track not present in AccurateRip database
     Copy OK

Track  7

     Filename G:Boris ZhivagoBoris Zhivago - 2018 - Memories (SP Records # SP 0034)7. Boris Zhivago - Come With Me.wav

     Peak level 77.8 %
     Extraction speed 6.8 X
     Track quality 100.0 %
     Test CRC FCEE9FB3
     Copy CRC FCEE9FB3
     Track not present in AccurateRip database
     Copy OK

Track  8

     Filename G:Boris ZhivagoBoris Zhivago - 2018 - Memories (SP Records # SP 0034)8. Boris Zhivago - Adagio For Love.wav

     Peak level 91.1 %
     Extraction speed 7.1 X
     Track quality 100.0 %
     Test CRC 957FCC53
     Copy CRC 957FCC53
     Track not present in AccurateRip database
     Copy OK

Track  9

     Filename G:Boris ZhivagoBoris Zhivago - 2018 - Memories (SP Records # SP 0034)9. Boris Zhivago - Sovjet D'Amour.wav

     Peak level 82.0 %
     Extraction speed 7.5 X
     Track quality 100.0 %
     Test CRC 06FACB0F
     Copy CRC 06FACB0F
     Track not present in AccurateRip database
     Copy OK

Track 10

     Filename G:Boris ZhivagoBoris Zhivago - 2018 - Memories (SP Records # SP 0034)10. Boris Zhivago - That Was Yesterday.wav

     Peak level 97.3 %
     Extraction speed 7.5 X
     Track quality 99.9 %
     Test CRC 363C48CD
     Copy CRC 363C48CD
     Track not present in AccurateRip database
     Copy OK

Track 11

     Filename G:Boris ZhivagoBoris Zhivago - 2018 - Memories (SP Records # SP 0034)11. Boris Zhivago - In Your Eyes.wav

     Peak level 81.2 %
     Extraction speed 8.2 X
     Track quality 100.0 %
     Test CRC 60A1FA26
     Copy CRC 60A1FA26
     Track not present in AccurateRip database
     Copy OK

Track 12

     Filename G:Boris ZhivagoBoris Zhivago - 2018 - Memories (SP Records # SP 0034)12. Boris Zhivago - Lady Of My Fantasy.wav

     Peak level 81.2 %
     Extraction speed 8.4 X
     Track quality 100.0 %
     Test CRC F8735CC5
     Copy CRC F8735CC5
     Track not present in AccurateRip database
     Copy OK

Track 13

     Filename G:Boris ZhivagoBoris Zhivago - 2018 - Memories (SP Records # SP 0034)13. Boris Zhivago - Never Too Late.wav

     Peak level 77.8 %
     Extraction speed 7.4 X
     Track quality 99.9 %
     Test CRC 4AD4D545
     Copy CRC 4AD4D545
     Track not present in AccurateRip database
     Copy OK


None of the tracks are present in the AccurateRip database

No errors occurred

End of status report

---- AcoustID Plugin V1.2.0

Total fingerprints: 13


---- CUETools DB Plugin V2.1.6

[CTDB TOCID: ZylAjik41d7nCMzCJNG5C6pVow4-] disk not present in database
Submit result: ZylAjik41d7nCMzCJNG5C6pVow4- has been uploaded


==== Log checksum 7E13441AB91DB9F4293DC334B54598DC110478BA5EC3D7344BB46C12A83FD4FF ====

Single download
Boris Zhivago – Memoires 5:29
Boris Zhivago – Love Is A Memory Away 7:56
Boris Zhivago – Russian Fantasy 5:25
Boris Zhivago – The Girl That Saved My Life 7:02
Boris Zhivago – One More Night With You 8:37
Boris Zhivago – Don’t Look Back 5:46
Boris Zhivago – Come With Me 4:15
Boris Zhivago – Adagio For Love 4:48
Boris Zhivago – Sovjet D’Amour 5:09
Boris Zhivago – That Was Yesterday 7:19
Boris Zhivago – In Your Eyes 6:21
Boris Zhivago – Lady Of My Fantasy 5:50
Boris Zhivago – Never Too Late 4:16

Category:Synth Pop
Main catalog

Recommended:

The Shade – Through Distant Times (2014) FLAC (image + .cue) VA – Retro. Active 2 – Rare & Remixed (2004) FLAC (image + .cue) Isaac Junkie – Never Feel The Silence (Depeche Mode Remixes) (2015) FLAC (image + .cue)

About the Author:

music