Mario Lopez – Mother Earth (2000) FLAC (tracks + .cue) music Lossless

Mario Lopez - Mother Earth (2000) FLAC (tracks + .cue)
Artist: Mario Lopez | Album: Mother Earth | Released: 2000 | Genre: Trance

Tracklisting:

01. Mario Lopez – The Sound Of Nature – Part II (Short Club Mix) (02:57)
02. Mario Lopez – Into My Brain (Plug’N’Play Club Rmx) (07:01)
03. Mario Lopez – The Sound Of Nature – Part I (Plug’N’Play Video Rmx) (02:53)
04. Mario Lopez – Liberate Yourself (Short Radio Mix) (03:14)
05. Mario Lopez – I’ve Got No Time (Club Mix) (06:34)
06. Mario Lopez – For Your Eyes Only (Villa Club Mix) (05:39)
07. Mario Lopez – Once In Your Lifetime (Club Mix) (06:17)
08. Mario Lopez – Where I Want To Be And Die (Club Mix) (06:20)
09. Mario Lopez – Beautiful World (Vill@ Club Rmx) (06:03)
10. Mario Lopez – Strange Days (Short Cut) (03:21)
11. Mario Lopez – The Sound Of Nature – Part II (Plug ‘N’ Play Club Rmx) (06:07)
12. Mario Lopez – The Sound Of Nature (Radio Version) (03:39)
13. Mario Lopez – Into My Brain (Marc Van Linden Rmx) (03:20)
Video. Mario Lopez – The Sound Of Nature – Part II (02:59)

 Log Exact Audio Copy

Exact Audio Copy V0.99 prebeta 4 from 23. January 2008

EAC extraction logfile from 1. October 2009, 20:54

Mario Lopez / Mother Earth

Used drive : _NEC DVD_RW ND-4550A Adapter: 1 ID: 0

Read mode : Secure
Utilize accurate stream : Yes
Defeat audio cache : Yes
Make use of C2 pointers : No

Read offset correction : 48
Overread into Lead-In and Lead-Out : No
Fill up missing offset samples with silence : Yes
Delete leading and trailing silent blocks : No
Null samples used in CRC calculations : Yes
Used interface : Native Win32 interface for Win NT & 2000
Gap handling : Appended to previous track

Used output format : Internal WAV Routines
Sample format : 44.100 Hz; 16 Bit; Stereo

TOC of the extracted CD

Track | Start | Length | Start sector | End sector
---------------------------------------------------------
1 | 0:00.00 | 2:59.62 | 0 | 13486
2 | 2:59.62 | 7:03.56 | 13487 | 45267
3 | 10:03.43 | 2:55.05 | 45268 | 58397
4 | 12:58.48 | 3:16.20 | 58398 | 73117
5 | 16:14.68 | 6:36.07 | 73118 | 102824
6 | 22:51.00 | 5:41.07 | 102825 | 128406
7 | 28:32.07 | 6:19.60 | 128407 | 156891
8 | 34:51.67 | 6:22.54 | 156892 | 185595
9 | 41:14.46 | 6:03.21 | 185596 | 212841
10 | 47:17.67 | 3:20.49 | 212842 | 227890
11 | 50:38.41 | 6:07.45 | 227891 | 255460
12 | 56:46.11 | 3:41.44 | 255461 | 272079
13 | 60:27.55 | 3:20.57 | 272080 | 287136
14 | 66:20.37 | 9:10.10 | 298537 | 339796

Track 1

Filename C:Documents and Settings

Single download
Mario Lopez - Mario Lopez - The Sound Of Nature - Part II Short Club Mix
Mario Lopez - Mario Lopez - Into My Brain Plug'N'Play Club Rmx
Mario Lopez - Mario Lopez - The Sound Of Nature - Part I Plug'N'Play Video Rmx
Mario Lopez - Mario Lopez - Liberate Yourself Short Radio Mix
Mario Lopez - Mario Lopez - I've Got No Time Club Mix
Mario Lopez - Mario Lopez - For Your Eyes Only Villa Club Mix
Mario Lopez - Mario Lopez - Once In Your Lifetime Club Mix
Mario Lopez - Mario Lopez - Where I Want To Be And Die Club Mix
Mario Lopez - Mario Lopez - Beautiful World Vill@ Club Rmx
Mario Lopez - Mario Lopez - Strange Days Short Cut
Mario Lopez - Mario Lopez - The Sound Of Nature - Part II Plug 'N' Play Club Rmx
Mario Lopez - Mario Lopez - The Sound Of Nature Radio Version
Mario Lopez - Mario Lopez - Into My Brain Marc Van Linden Rmx

Category:Trance
Main catalog

Recommended:

Andy Hunter - Exodus (2002) FLAC (tracks) ATB - Don't Stop (UK Single) (1999) FLAC (tracks + .cue) Glenn Frantz - Space Bar - Back Space (2007) FLAC

About the Author:

music