Alan Price – Rising Sun (1980, 2000) FLAC (tracks + .cue) music Lossless

Alan Price - Rising Sun (1980, 2000) FLAC (tracks + .cue)
Artist: Alan Price | Album: Rising Sun | Released: 1980, 2000 | Label: Edsel Records, UK | Catalog #: EDCD658 | Genre: Rock, Classic Rock | Country: UK | Duration: 00:49:48

Tracklisting:

01. The House Of The Rising Sun (5:22)
02. I’m Coming Back (3:20)
03. Mr. Sunbeam (3:11)
04. Love You True (3:59)
05. Perfect Lady (3:01)
06. Wake Up (3:55)
07. The Love That I Needed (3:01)
08. I Have Tried (3:35)
09. Don’t Make Me Suffer (3:33)
10. Music In The City (3:11)
11. This Ain’t Your Lucky Day (The Girl Won’t Get Under) (3:43)
12. Groovy Times (6:01)
13. Baby Of Mine (3:57)

 Log Exact Audio Copy

EAC extraction logfile from 22. January 2008, 16:37 for CD
Alan Price / Rising Sun

Used drive  : TSSTcorpCD/DVDW SH-S182M   Adapter: 0  ID: 0
Read mode   : Secure with NO C2, accurate stream, disable cache
Read offset correction : 6
Overread into Lead-In and Lead-Out : No

Used output format : C:Program FilesFLACflac.exe   (User Defined Encoder)
                     128 kBit/s
                     Additional command line options : -V -8 -T "artist=%a" -T "title=%t" -T "album=%g" -T "date=%y" -T "tracknumber=%n" -T "genre=%m" %s

Other options      : 
    Fill up missing offset samples with silence : Yes
    Delete leading and trailing silent blocks : No
    Installed external ASPI interface


Track  1
     Filename C:Program FilesExact Audio Copy1 - The House Of The Rising Sun.wav

     Pre-gap length  0:00:02.00

     Peak level 98.7 %
     Track quality 100.0 %
     Test CRC BF39876F
     Copy CRC BF39876F
     Copy OK

Track  2
     Filename C:Program FilesExact Audio Copy2 - I'm Coming Back.wav

     Pre-gap length  0:00:02.26

     Peak level 98.7 %
     Track quality 100.0 %
     Test CRC 00F485B3
     Copy CRC 00F485B3
     Copy OK

Track  3
     Filename C:Program FilesExact Audio Copy3 - Mr. Sunbeam.wav

     Pre-gap length  0:00:02.26

     Peak level 98.7 %
     Track quality 99.9 %
     Test CRC BB9253AB
     Copy CRC BB9253AB
     Copy OK

Track  4
     Filename C:Program FilesExact Audio Copy4 - Love You True.wav

     Pre-gap length  0:00:02.26

     Peak level 98.7 %
     Track quality 100.0 %
     Test CRC 711802B6
     Copy CRC 711802B6
     Copy OK

Track  5
     Filename C:Program FilesExact Audio Copy5 - Perfect Lady.wav

     Pre-gap length  0:00:02.26

     Peak level 98.7 %
     Track quality 99.9 %
     Test CRC 3143536A
     Copy CRC 3143536A
     Copy OK

Track  6
     Filename C:Program FilesExact Audio Copy6 - Wake Up.wav

     Pre-gap length  0:00:02.26

     Peak level 98.7 %
     Track quality 99.9 %
     Test CRC 1368FE38
     Copy CRC 1368FE38
     Copy OK

Track  7
     Filename C:Program FilesExact Audio Copy7 - The Love That I Needed.wav

     Pre-gap length  0:00:02.26

     Peak level 98.7 %
     Track quality 99.9 %
     Test CRC F97849A5
     Copy CRC F97849A5
     Copy OK

Track  8
     Filename C:Program FilesExact Audio Copy8 - I Have Tried.wav

     Pre-gap length  0:00:02.26

     Peak level 98.7 %
     Track quality 100.0 %
     Test CRC C1205CB2
     Copy CRC C1205CB2
     Copy OK

Track  9
     Filename C:Program FilesExact Audio Copy9 - Don't Make Me Suffer.wav

     Pre-gap length  0:00:02.26

     Peak level 98.7 %
     Track quality 100.0 %
     Test CRC B28FB240
     Copy CRC B28FB240
     Copy OK

Track 10
     Filename C:Program FilesExact Audio Copy10 - Music In The City.wav

     Pre-gap length  0:00:02.26

     Peak level 98.7 %
     Track quality 100.0 %
     Test CRC 45E1EA96
     Copy CRC 45E1EA96
     Copy OK

Track 11
     Filename C:Program FilesExact Audio Copy11 - This Ain't Your Lucky Day (The Girl Won't Get Under).wav

     Pre-gap length  0:00:03.26

     Peak level 98.7 %
     Track quality 100.0 %
     Test CRC CC79322F
     Copy CRC CC79322F
     Copy OK

Track 12
     Filename C:Program FilesExact Audio Copy12 - Groovy Times.wav

     Pre-gap length  0:00:02.26

     Peak level 98.7 %
     Track quality 99.9 %
     Test CRC 4F033097
     Copy CRC 4F033097
     Copy OK

Track 13
     Filename C:Program FilesExact Audio Copy13 - Baby Of Mine.wav

     Pre-gap length  0:00:02.25

     Peak level 98.7 %
     Track quality 100.0 %
     Test CRC 49C1B969
     Copy CRC 49C1B969
     Copy OK

No errors occured


End of status report

Single download
Alan Price – The House Of The Rising Sun 5:22
Alan Price – I’m Coming Back 3:20
Alan Price – Mr. Sunbeam 3:11
Alan Price – Love You True 3:59
Alan Price – Perfect Lady 3:01
Alan Price – Wake Up 3:55
Alan Price – The Love That I Needed 3:01
Alan Price – I Have Tried 3:35
Alan Price – Don’t Make Me Suffer 3:33
Alan Price – Music In The City 3:11
Alan Price – This Ain’t Your Lucky Day The Girl Won’t Get Under
Alan Price – Groovy Times 6:01
Alan Price – Baby Of Mine 3:57

Category:Rock
Main catalog

Recommended:

The Exies – A Modern Way of Living with the Truth (2007) FLAC (tracks + .cue) Sonar – Static Motion (2014) FLAC (tracks + .cue) Tool – 10,000 Days (10000 Days) [2015, 2006) FLAC (tracks)

About the Author:

music