Grateful Dead – Dave’s Picks Vol. 26 Bonus Disc Hill Auditorium, Ann Arbor, MI 12-14-71 (2018) FLAC (tracks + .cue) music Lossless

Grateful Dead - Dave's Picks Vol. 26 Bonus Disc Hill Auditorium, Ann Arbor, MI 12-14-71 (2018) FLAC (tracks + .cue)
Artist: Grateful Dead | Album: Dave’s Picks Vol. 26 Bonus Disc Hill Auditorium, Ann Arbor, MI 12-14-71 | Released: 2018 | Label: Grateful Dead Records | Catalog #: R2-565020 | Genre: Rock, Blues Rock, Country Rock, Psychedelic Rock | Country: US | Duration: 01:18:58

Limited Edition of 18,000 individually numbered copies

Tracklisting:

01. Jack Straw (5:07)
02. Tennessee Jed (7:23)
03. Black Peter (9:07)
04. Playing In The Band (7:03)
05. Casey Jones (6:13)
06. Mexicali Blues (3:34)
07. Cryptical Envelopment (1:55)
08. Drums (3:38)
09. The Other One (18:32)
10. Wharf Rat (9:07)
11. Sugar Magnolia (7:20)

 Log Exact Audio Copy

Exact Audio Copy V1.0 beta 3 from 29. August 2011

EAC extraction logfile from 28. April 2018, 13:11

Grateful Dead / Dave's Picks 2018 Bonus Disc

Used drive  : HL-DT-STBD-RE  WH12LS39   Adapter: 1  ID: 1

Read mode               : Secure
Utilize accurate stream : Yes
Defeat audio cache      : Yes
Make use of C2 pointers : No

Read offset correction                      : 667
Overread into Lead-In and Lead-Out          : No
Fill up missing offset samples with silence : Yes
Delete leading and trailing silent blocks   : No
Null samples used in CRC calculations       : Yes
Used interface                              : Native Win32 interface for Win NT & 2000
Gap handling                                : Appended to previous track

Used output format              : User Defined Encoder
Selected bitrate                : 1024 kBit/s
Quality                         : High
Add ID3 tag                     : No
Command line compressor         : C:Program Files (x86)Exact Audio CopyFLACFLAC.EXE
Additional command line options : -8 -V -T "ARTIST=%artist%" -T "TITLE=%title%" -T "ALBUM=%albumtitle%" -T "DATE=%year%" -T "TRACKNUMBER=%tracknr%" -T "GENRE=%genre%" -T "PERFORMER=%albuminterpret%" -T "COMPOSER=%composer%" %haslyrics%--tag-from-file=LYRICS="%lyricsfile%"%haslyrics% -T "ALBUMARTIST=%albumartist%" -T "DISCNUMBER=%cdnumber%" -T "TOTALDISCS=%totalcds%" -T "TOTALTRACKS=%numtracks%" -T "COMMENT=%comment%" %source% -o %dest%


TOC of the extracted CD

     Track |   Start  |  Length  | Start sector | End sector 
    ---------------------------------------------------------
        1  |  0:00.00 |  5:07.35 |         0    |    23059   
        2  |  5:07.35 |  7:23.16 |     23060    |    56300   
        3  | 12:30.51 |  9:06.53 |     56301    |    97303   
        4  | 21:37.29 |  7:02.58 |     97304    |   129011   
        5  | 28:40.12 |  6:12.49 |    129012    |   156960   
        6  | 34:52.61 |  3:33.67 |    156961    |   173002   
        7  | 38:26.53 |  1:54.56 |    173003    |   181608   
        8  | 40:21.34 |  3:37.38 |    181609    |   197921   
        9  | 43:58.72 | 18:31.43 |    197922    |   281289   
       10  | 62:30.40 |  9:07.35 |    281290    |   322349   
       11  | 71:38.00 |  7:20.21 |    322350    |   355370   


Track  1

     Filename E:RipsGrateful DeadDave's Picks 2018 Bonus Disc1 Jack Straw.wav

     Pre-gap length  0:00:02.00

     Peak level 97.7 %
     Extraction speed 1.3 X
     Track quality 100.0 %
     Test CRC 623F5E14
     Copy CRC 623F5E14
     Track not present in AccurateRip database
     Copy OK

Track  2

     Filename E:RipsGrateful DeadDave's Picks 2018 Bonus Disc2 Tennessee Jed.wav

     Peak level 97.7 %
     Extraction speed 1.4 X
     Track quality 99.9 %
     Test CRC 151CF7A3
     Copy CRC 151CF7A3
     Track not present in AccurateRip database
     Copy OK

Track  3

     Filename E:RipsGrateful DeadDave's Picks 2018 Bonus Disc3 Black Peter.wav

     Peak level 97.7 %
     Extraction speed 1.7 X
     Track quality 100.0 %
     Test CRC 0C51B685
     Copy CRC 0C51B685
     Track not present in AccurateRip database
     Copy OK

Track  4

     Filename E:RipsGrateful DeadDave's Picks 2018 Bonus Disc4 Playing In The Band.wav

     Peak level 97.7 %
     Extraction speed 1.9 X
     Track quality 100.0 %
     Test CRC 6670EED0
     Copy CRC 6670EED0
     Track not present in AccurateRip database
     Copy OK

Track  5

     Filename E:RipsGrateful DeadDave's Picks 2018 Bonus Disc5 Casey Jones.wav

     Peak level 97.7 %
     Extraction speed 2.0 X
     Track quality 100.0 %
     Test CRC F87E205A
     Copy CRC F87E205A
     Track not present in AccurateRip database
     Copy OK

Track  6

     Filename E:RipsGrateful DeadDave's Picks 2018 Bonus Disc6 Mexicali Blues.wav

     Peak level 97.7 %
     Extraction speed 2.0 X
     Track quality 100.0 %
     Test CRC F4E17414
     Copy CRC F4E17414
     Track not present in AccurateRip database
     Copy OK

Track  7

     Filename E:RipsGrateful DeadDave's Picks 2018 Bonus Disc7 Cryptical Envelopment.wav

     Peak level 97.7 %
     Extraction speed 1.8 X
     Track quality 100.0 %
     Test CRC B4DA68FA
     Copy CRC B4DA68FA
     Track not present in AccurateRip database
     Copy OK

Track  8

     Filename E:RipsGrateful DeadDave's Picks 2018 Bonus Disc8 Drums.wav

     Peak level 97.7 %
     Extraction speed 2.1 X
     Track quality 100.0 %
     Test CRC 198CCC69
     Copy CRC 198CCC69
     Track not present in AccurateRip database
     Copy OK

Track  9

     Filename E:RipsGrateful DeadDave's Picks 2018 Bonus Disc9 The Other One.wav

     Peak level 97.7 %
     Extraction speed 2.5 X
     Track quality 100.0 %
     Test CRC AABBD584
     Copy CRC AABBD584
     Track not present in AccurateRip database
     Copy OK

Track 10

     Filename E:RipsGrateful DeadDave's Picks 2018 Bonus Disc10 Wharf Rat.wav

     Peak level 97.7 %
     Extraction speed 2.5 X
     Track quality 99.9 %
     Test CRC 782626B1
     Copy CRC 782626B1
     Track not present in AccurateRip database
     Copy OK

Track 11

     Filename E:RipsGrateful DeadDave's Picks 2018 Bonus Disc11 Sugar Magnolia.wav

     Peak level 97.7 %
     Extraction speed 2.7 X
     Track quality 100.0 %
     Test CRC A5E42222
     Copy CRC A5E42222
     Track not present in AccurateRip database
     Copy OK


None of the tracks are present in the AccurateRip database

No errors occurred

End of status report

---- CUETools DB Plugin V2.1.4

[CTDB TOCID: X4.ymG4diOPH9MqFk080wXlnTEQ-] found
Submit result: X4.ymG4diOPH9MqFk080wXlnTEQ- has been confirmed
Track | CTDB Status
  1   | (4/4) Accurately ripped
  2   | (4/4) Accurately ripped
  3   | (4/4) Accurately ripped
  4   | (4/4) Accurately ripped
  5   | (4/4) Accurately ripped
  6   | (4/4) Accurately ripped
  7   | (4/4) Accurately ripped
  8   | (4/4) Accurately ripped
  9   | (4/4) Accurately ripped
 10   | (4/4) Accurately ripped
 11   | (4/4) Accurately ripped


==== Log checksum A57C0A23A4B6D904AD5959AE3D44E997585D445032DF86F424957D5CD3692DC4 ====

Single download
Grateful Dead – Jack Straw 5:07
Grateful Dead – Tennessee Jed 7:23
Grateful Dead – Black Peter 9:07
Grateful Dead – Playing In The Band 7:03
Grateful Dead – Casey Jones 6:13
Grateful Dead – Mexicali Blues 3:34
Grateful Dead – Cryptical Envelopment 1:55
Grateful Dead – Drums 3:38
Grateful Dead – The Other One 18:32
Grateful Dead – Wharf Rat 9:07
Grateful Dead – Sugar Magnolia 7:20

Category:Rock
Main catalog

Recommended:

Aimee Mann – Lost In Space (2002-2003) WV (image + .cue) Romeo’s Daughter – Spin (2015) FLAC (image + .cue) Kansas – The Prelude Implicit (2016) FLAC (tracks + .cue)

About the Author:

music